Сегодня идет свободное скачивание без начисления Download

Холодная рыба / Tsumetai nettaigyo (2010) HDRip [VO]

Ответить на тему
 
Автор Сообщение

Bot ®

Стаж: 3 года 3 месяца

Сообщений: 13

Создавать темы 13-Фев-2018 21:00

[Цитировать]

Холодная рыба / Tsumetai nettaigyo (2010) HDRip [VO] - Производство: Япония / Nikkatsu Corporation, Stairway
Жанр: Триллер, Ужасы, Драма, Криминал
Режиссер: Сион Соно
Актеры: Мицуру Фукикоси, Дэндэн, Асука Куросава, Мэгуми Кагурадзака, Хикари Кадзивара, Тэцу Ватанабэ, Макото Асикава, Лорена Кото, Масаки Миура, Дзёнмён Пе
Описание:
Шамото — владелец небольшого магазина торгующий рыбой. Герой фильма перенимает у своего конкурента весьма любопытный способ разборки с недовольными покупателями, узнающими что тот торгует некачественной рыбой — он их попросту убивает. Раз… два… но ведь это затягивает и уже сложно остановиться!.

Возраст: 18+ (зрителям, достигшим 18 лет. запрещено для детей)
Релиз от: Neronastik
Продолжительность: 02:26:08
Качество видео: HDRip
Перевод: Одноголосый закадровый, любительский (den904)
Субтитры: отсутствуют
Видео: Xvid, 688x368, ~1225 Kbps
Аудио: AC3, 2 ch, 192 Kbps
Mediainfo:
General
Complete name : /media/win/TORRENT/UPLOAD TORRENTS/Холодная.рыба.2010.HDRip.avi
Format : AVI
Format/Info : Audio Video Interleave
File size : 1.46 GiB
Duration : 2 h 26 min
Overall bit rate : 1 427 kb/s
Writing application : VirtualDubModRus 1.5.10.2 (build 2542/release)
Writing library : VirtualDubMod build 2542/release
Video
ID : 0
Format : MPEG-4 Visual
Format profile : Advanced Simple@L5
Format settings : BVOP2 / Custom Matrix
Format settings, BVOP : 2
Format settings, QPel : No
Format settings, GMC : No warppoints
Format settings, Matrix : Custom
Codec ID : XVID
Codec ID/Hint : XviD
Duration : 2 h 26 min
Bit rate : 1 226 kb/s
Width : 688 pixels
Height : 368 pixels
Display aspect ratio : 1.85:1
Frame rate : 23.976 (24000/1001) FPS
Color space : YUV
Chroma subsampling : 4:2:0
Bit depth : 8 bits
Scan type : Progressive
Compression mode : Lossy
Bits/(Pixel*Frame) : 0.202
Stream size : 1.25 GiB (86%)
Writing library : XviD 1.2.1 (UTC 2008-12-04)
Audio
ID : 1
Format : AC-3
Format/Info : Audio Coding 3
Codec ID : 2000
Duration : 2 h 26 min
Bit rate mode : Constant
Bit rate : 192 kb/s
Channel(s) : 2 channels
Channel positions : Front: L R
Sampling rate : 48.0 kHz
Frame rate : 31.250 FPS (1536 SPF)
Bit depth : 16 bits
Compression mode : Lossy
Stream size : 201 MiB (13%)
Alignment : Split accross interleaves
Interleave, duration : 42 ms (1.00 video frame)
Interleave, preload duration : 500 ms
Service kind : Complete Main
Скриншоты:
Все одноименные релизы в КлубеВремя раздачи: с 09:00 до 22:00 до пяти скачавших (до появления первых 3-5 скачавших)
[Профиль] [ЛС]
Показать сообщения:    
Ответить на тему

Текущее время: 20-Июн 18:09

Часовой пояс: UTC + 3



Вы не можете начинать темы
Вы не можете отвечать на сообщения
Вы не можете редактировать свои сообщения
Вы не можете удалять свои сообщения
Вы не можете голосовать в опросах
Вы не можете прикреплять файлы к сообщениям
Вы не можете скачивать файлы