Сегодня идет свободное скачивание без начисления Download

Холостяк (2018.03.11) SATRip (6 сезон, выпуск 1)

Ответить на тему
 
Автор Сообщение

Bot ®

Стаж: 5 лет 6 месяцев

Сообщений: 16

Создавать темы 12-Мар-2018 00:31

[Цитировать]

Холостяк (2018.03.11) SATRip (6 сезон, выпуск 1) - Телекомпания: ТНТ
Жанр: Реалити Шоу
Холостяк: Егор Крид
Описание:
В 6-м сезоне самого романтичного шоу ТНТ главным героем станет 23-летний певец Егор Крид! Самый завидный жених страны, а также артист музыкального лейбла Black Star предстанет перед зрителями шоу «Холостяк».
Именно за его сердце будут бороться самые красивые девушки России.
Продолжительность: 1:38:28
Качество видео: SATRip
Субтитры: Отсутствуют
Видео: Xvid, 720x400(16:9), 25.000 fps, ~1645 Kbps
Аудио: MP3, 48.0 KHz, 2 ch, 192 Kbps, CBR
Mediainfo:
General
Complete name : /media/vitali/MOVIES/Holostyak.S06/Holostyak.S06E01.XviD.SATRip.avi
Format : AVI
Format/Info : Audio Video Interleave
File size : 1.27 GiB
Duration : 1 h 38 min
Overall bit rate : 1 852 kb/s
Writing application : VirtualDubMod 1.5.10.3 (build 2550/release)
Writing library : VirtualDubMod build 2550/release
Video
ID : 0
Format : MPEG-4 Visual
Format profile : Advanced Simple@L5
Format settings, BVOP : 2
Format settings, QPel : No
Format settings, GMC : No warppoints
Format settings, Matrix : Default (MPEG)
Codec ID : XVID
Codec ID/Hint : XviD
Duration : 1 h 38 min
Bit rate : 1 650 kb/s
Width : 720 pixels
Height : 400 pixels
Display aspect ratio : 16:9
Frame rate : 25.000 FPS
Color space : YUV
Chroma subsampling : 4:2:0
Bit depth : 8 bits
Scan type : Progressive
Compression mode : Lossy
Bits/(Pixel*Frame) : 0.229
Stream size : 1.13 GiB (89%)
Writing library : XviD 1.2.1 (UTC 2008-12-04)
Audio
ID : 1
Format : MPEG Audio
Format version : Version 1
Format profile : Layer 3
Mode : Joint stereo
Codec ID : 55
Codec ID/Hint : MP3
Duration : 1 h 38 min
Bit rate mode : Constant
Bit rate : 192 kb/s
Channel(s) : 2 channels
Sampling rate : 48.0 kHz
Compression mode : Lossy
Stream size : 135 MiB (10%)
Alignment : Aligned on interleaves
Interleave, duration : 40 ms (1.00 video frame)
Interleave, preload duration : 504 ms
Writing library : LAME3.99r
Encoding settings : -m j -V 4 -q 2 -lowpass 18.6 -b 192
Скриншоты:
Все одноименные релизы в КлубеВремя раздачи: По возможности (до появления первых 3-5 скачавших)
[Профиль] [ЛС]
Показать сообщения:    
Ответить на тему

Текущее время: 25-Июн 16:50

Часовой пояс: UTC + 3



Вы не можете начинать темы
Вы не можете отвечать на сообщения
Вы не можете редактировать свои сообщения
Вы не можете удалять свои сообщения
Вы не можете голосовать в опросах
Вы не можете прикреплять файлы к сообщениям
Вы не можете скачивать файлы