Сегодня идет свободное скачивание без начисления Download

Мстители / The Avengers (2012) BDRip [H.264] [MP4|1920x1080]

Ответить на тему
 
Автор Сообщение

Bot ®

Стаж: 3 года 11 месяцев

Сообщений: 12

Создавать темы 13-Мар-2018 04:30

[Цитировать]

Мстители / The Avengers (2012) BDRip - Производство: США
Жанр: Фантастика, Фэнтези, Боевик, Приключения
Режиссер: Джосс Уидон
Продюсер: Кевин Файги, Виктория Алонсо, Луис Д’Эспозито
Актеры: Роберт Дауни мл., Крис Эванс, Марк Руффало, Крис Хемсворт, Скарлетт Йоханссон, Джереми Реннер, Том Хиддлстон, Сэмюэл Л. Джексон, Кларк Грегг, Коби Смолдерс
Описание:
Локи, сводный брат Тора, возвращается, и в этот раз он не один. Земля на грани порабощения, и только лучшие из лучших могут спасти человечество.
Ник Фьюри, глава международной организации Щ. И. Т., собирает выдающихся поборников справедливости и добра, чтобы отразить атаку. Под предводительством Капитана Америки Железный Человек, Тор, Невероятный Халк, Соколиный глаз и Чёрная Вдова вступают в войну с захватчиком.

Возраст: 12+ (зрителям, достигшим 12 лет)
Рейтинг MPAA: PG-13 (детям до 13 лет просмотр нежелателен)
Дата мировой премьеры: 11 апреля 2012
Дата российской премьеры: 3 мая 2012
Продолжительность: 02:22:55
Качество видео: BDRip
Перевод: Дублированный (Лицензия)
Субтитры: Русские (форсированные, полные), Английские (форсированные, полные)
Видео: AVC/H.264, 1920x1080, ~2416 Kbps
Аудио: AC3, 6 ch, 384 Kbps
Mediainfo:
Общее
Полное имя : E:\Download\1\Мстители 2012 1080p.mp4
Формат : MPEG-4
Профиль формата : Base Media
Идентификатор кодека : isom (isom/avc1/iso6)
Размер файла : 2,80 Гбайт
Продолжительность : 2 ч. 22 м.
Режим общего битрейта : Переменный
Общий поток : 2802 Кбит/сек
Дата кодирования : UTC 2018-02-13 14:49:22
Дата пометки : UTC 2018-02-13 14:49:22
Видео
Идентификатор : 1
Формат : AVC
Формат/Информация : Advanced Video Codec
Профиль формата : High@L4
Настройки формата : CABAC / 2 Ref Frames
Параметр CABAC формата : Да
Параметр RefFrames формата : 2 кадра
Идентификатор кодека : avc1
Идентификатор кодека/Информация : Advanced Video Coding
Продолжительность : 2 ч. 22 м.
Битрейт : 2416 Кбит/сек
Максимальный битрейт : 11,3 Мбит/сек
Ширина : 1920 пикселей
Высота : 1080 пикселей
Соотношение сторон : 16:9
Режим частоты кадров : Постоянный
Частота кадров : 23,976 (24000/1001) кадра/сек
Цветовое пространство : YUV
Субдискретизация насыщенности : 4:2:0
Битовая глубина : 8 бит
Тип развёртки : Прогрессивная
Бит/(Пиксели*Кадры) : 0.049
Размер потока : 2,41 Гбайт (86%)
Дата кодирования : UTC 2018-02-13 14:49:22
Дата пометки : UTC 2018-02-13 14:54:45
Цветовой диапазон : Limited
Основные цвета : BT.709
Характеристики трансфера : BT.709
Коэффициенты матрицы : BT.709
Аудио
Идентификатор : 2
Формат : AC-3
Формат/Информация : Audio Coding 3
Параметр Endianness формата : Big
Идентификатор кодека : ac-3
Продолжительность : 2 ч. 22 м.
Вид битрейта : Постоянный
Битрейт : 384 Кбит/сек
Максимальный битрейт : 406 Кбит/сек
Каналы : 2 канала
Расположение каналов : Front: L R
Частота : 48,0 КГц
Частота кадров : 31,250 кадров/сек (1536 SPF)
Битовая глубина : 16 бит
Метод сжатия : С потерями
Размер потока : 393 Мбайт (14%)
Заголовок : Дублированный (Лицензия)
Язык : Russian
ServiceKind/String : Complete Main
Дата кодирования : UTC 2018-02-13 14:54:00
Дата пометки : UTC 2018-02-13 14:54:45
Текст #1
Идентификатор : 3
Формат : Timed Text
Идентификатор кодека : tx3g
Продолжительность : 2 ч. 6 м.
Вид битрейта : Переменный
Битрейт : 1 бит/сек
Размер потока : 942 байт (0%)
Заголовок : Forced
Язык : Russian
Forced : Нет
Дата кодирования : UTC 2018-02-13 14:54:45
Дата пометки : UTC 2018-02-13 14:54:45
Текст #2
Идентификатор : 4
Формат : Timed Text
Идентификатор кодека : tx3g
Продолжительность : 2 ч. 15 м.
Вид битрейта : Переменный
Битрейт : 91 бит/сек
Размер потока : 90,0 Кбайт (0%)
Заголовок : Full
Язык : Russian
Forced : Нет
Дата кодирования : UTC 2018-02-13 14:54:45
Дата пометки : UTC 2018-02-13 14:54:45
Текст #3
Идентификатор : 5
Формат : Timed Text
Идентификатор кодека : tx3g
Продолжительность : 15 м. 58 с.
Вид битрейта : Переменный
Битрейт : 7 бит/сек
Размер потока : 822 байт (0%)
Заголовок : Forced
Язык : English
Forced : Нет
Дата кодирования : UTC 2018-02-13 14:54:45
Дата пометки : UTC 2018-02-13 14:54:45
Текст #4
Идентификатор : 6
Формат : Timed Text
Идентификатор кодека : tx3g
Продолжительность : 2 ч. 15 м.
Вид битрейта : Переменный
Битрейт : 63 бит/сек
Размер потока : 63,0 Кбайт (0%)
Заголовок : Full
Язык : English
Forced : Нет
Дата кодирования : UTC 2018-02-13 14:54:45
Дата пометки : UTC 2018-02-13 14:54:45
Скриншоты:
Все одноименные релизы в КлубеВремя раздачи: с 9:00 до 21:00 (до появления первых 3-5 скачавших)
[Профиль] [ЛС]
Показать сообщения:    
Ответить на тему

Текущее время: 17-Авг 08:59

Часовой пояс: UTC + 3



Вы не можете начинать темы
Вы не можете отвечать на сообщения
Вы не можете редактировать свои сообщения
Вы не можете удалять свои сообщения
Вы не можете голосовать в опросах
Вы не можете прикреплять файлы к сообщениям
Вы не можете скачивать файлы