Сегодня идет свободное скачивание без начисления Download

Паранормальный отряд / Ghost Team (2016) WEB-DL 1080p | iTunes

Ответить на тему
Статистика раздачи
Размер:  3,16 GB   |    Зарегистрирован:  3 месяца 12 дней   |    Скачан:  0 раз
Сидов:  18  [  0 KB/s  ]   Личеров:  30  [  0 KB/s  ]   Подробная статистика пиров
 
   
 
 
Автор Сообщение

Bot ®

Стаж: 6 лет 1 месяц

Сообщений: 34549

Откуда: СССР

Создавать темы 13-Мар-2018 16:13

[Цитировать]

Информация о фильме
Название: Паранормальный отряд
Оригинальное название: Ghost Team
Год выхода: 2016
Жанр: Комедия
Режиссер: Оливер Ирвинг
В ролях: Джон Хидер, Дэвид Крамхолц, Джастин Лонг, Мелони Диас, Эми Седарис, Пол В. Даунс, Том Шиллер, Джоэль Марш Гарлэнд, Вероника Дэш, Клемент МакИнтош
О фильме:
Призрачная команда охотников за привидениями и другими сверхъестественными явлениями подобралась что надо — по жизни зацикленный на идее заснять привидений на плёнку, его впавший в жестокую депрессию товарищ, которому всё равно чем заниматься и какие бы опасности это предприятие не сулило, племянник главного героя, всей своей предыдущей жизнью заслуживший прозвище «отбросы», а ещё медиум, живущая идеей достучаться до потустороннего мира, и обычный охранник, которому надоела скучная жизнь в супермаркете и захотелось настоящих приключений. Эта призрачная команда будет пытаться оживить мертвеца, поймать привидений и совершить ещё множество действий для сенсационного репортажа, что будет жутковато и одновременно дико смешно.

Страна: США
Студия: East to West Entertainment, Mott Street Pictures, Preferred Content
Продолжительность: 01:24:53
Перевод: Дублированный
Файл
Кодек: x.264
Качество: WEB-DL 1080p
Видео: MPEG-4 AVC, 1920x816, 4565 Кбит/с, 23.976 кадр/с
Звук:
Аудио #1: Русский ( AC3, 6ch, 384 Кбит/с, 48.0 KHz) Профессиональный (дублированный) [iTunes]
Аудио #2: Английский ( AC3, 6ch, 384 Кбит/с, 48.0 KHz)
Субтитры: английские
MediaInfo
General
Unique ID : 206312520559535277621312095745041344941 (0x9B36589BA1E381C5872382D032CDA9AD)
Complete name : Ghost.Team.2016.WEB-DLRip.1080p.mkv
Format : Matroska
Format version : Version 4 / Version 2
File size : 3.16 GiB
Duration : 1 h 24 min
Overall bit rate : 5 335 kb/s
Encoded date : UTC 2018-03-13 00:15:51
Writing application : mkvmerge v7.1.0 ('Good Love') 64bit built on Jul 27 2014 13:06:55
Writing library : libebml v1.3.0 + libmatroska v1.4.1
Video
ID : 1
Format : AVC
Format/Info : Advanced Video Codec
Format profile : High@L4
Format settings : CABAC / 5 Ref Frames
Format settings, CABAC : Yes
Format settings, ReFrames : 5 frames
Codec ID : V_MPEG4/ISO/AVC
Duration : 1 h 24 min
Bit rate : 4 565 kb/s
Width : 1 920 pixels
Height : 816 pixels
Display aspect ratio : 2.35:1
Frame rate mode : Constant
Frame rate : 23.976 (23976/1000) FPS
Color space : YUV
Chroma subsampling : 4:2:0
Bit depth : 8 bits
Scan type : Progressive
Bits/(Pixel*Frame) : 0.122
Stream size : 2.71 GiB (86%)
Language : English
Default : Yes
Forced : No
Color range : Limited
Color primaries : BT.709
Transfer characteristics : BT.709
Matrix coefficients : BT.709
Audio #1
ID : 2
Format : AC-3
Format/Info : Audio Coding 3
Codec ID : A_AC3
Duration : 1 h 24 min
Bit rate mode : Constant
Bit rate : 384 kb/s
Channel(s) : 6 channels
Channel positions : Front: L C R, Side: L R, LFE
Sampling rate : 48.0 kHz
Frame rate : 31.250 FPS (1536 SPF)
Bit depth : 16 bits
Compression mode : Lossy
Delay relative to video : -200 ms
Stream size : 233 MiB (7%)
Language : Russian
Service kind : Complete Main
Default : Yes
Forced : No
Audio #2
ID : 3
Format : AC-3
Format/Info : Audio Coding 3
Codec ID : A_AC3
Duration : 1 h 24 min
Bit rate mode : Constant
Bit rate : 384 kb/s
Channel(s) : 6 channels
Channel positions : Front: L C R, Side: L R, LFE
Sampling rate : 48.0 kHz
Frame rate : 31.250 FPS (1536 SPF)
Bit depth : 16 bits
Compression mode : Lossy
Stream size : 233 MiB (7%)
Language : English
Service kind : Complete Main
Default : No
Forced : No
Text
ID : 4
Format : UTF-8
Codec ID : S_TEXT/UTF8
Codec ID/Info : UTF-8 Plain Text
Duration : 1 h 22 min
Bit rate : 64 b/s
Count of elements : 1232
Stream size : 38.7 KiB (0%)
Language : English
Default : No
Forced : No
Menu
00:00:00.000 : en:Car Got Cold
00:10:37.000 : en:Putting the Team Together
00:19:51.000 : en:The Final Piece of the Puzzle
00:29:46.000 : en:I Think We Are Ready to Go
00:38:52.000 : en:E.V.P. Work
00:49:32.000 : en:Let's Go Hunt Some Mother F-Ing Ghosts
00:59:38.000 : en:Small People
01:10:08.000 : en:Fighting Back
01:17:48.000 : en:Dream Weavers
Скриншоты
[realmt.org].t1080870.torrent 
Торрент: Зарегистрирован [ 2018-03-13 16:13 ] · DEBC26498F3182BA18BC1082816D9DBF4A943DD5

Скачать .torrent

Скачать

17 KB

Статус: проверено
Скачан: 0 раз
Размер: 3,16 GB
terms.php
Последние поблагодарившие
[Профиль] [ЛС]
Быстрый ответ

Имя:

      
Для отправки сообщений необходимо включить JavaScript
Показать сообщения:    
Ответить на тему

Текущее время: 25-Июн 16:43

Часовой пояс: UTC + 3



Вы можете начинать темы
Вы можете отвечать на сообщения
Вы не можете редактировать свои сообщения
Вы не можете удалять свои сообщения
Вы не можете голосовать в опросах
Вы не можете прикреплять файлы к сообщениям
Вы можете скачивать файлы