Сегодня идет свободное скачивание без начисления Download

Московский щит. Быстрее. Выше. Сильнее (2018) WEBRip [H.264/576i]

Ответить на тему
 
Автор Сообщение

Bot ®

Стаж: 2 года

Сообщений: 9

Создавать темы 13-Мар-2018 17:46

[Цитировать]

Московский щит. Быстрее. Выше. Сильнее (2018) WEBRip [H.264/576i]- Телекомпания: Россия / ВГТРК
Жанр: Документальный, История, Спецслужбы
Участники: Режиссер: Алексей Китайцев
Описание:
Как обеспечивалась безопасность португальской сборной по футболу и ее форварда Криштиану Роналду в Москве и как сотрудники Московского управления КГБ противостояли криминалитету в период подготовки к Московской Олимпиаде? Представители отечественных спецслужб совместно с профессором Американского университета Питером Кузником и детективом ФБР Питером Гриненко рассказывают о природе терроризма и необходимости учитывать печальный опыт террористических актов на мировых спортивных состязаниях – от Мюнхенской Олимпиады 1972 года до трагедии на Бостонском марафоне. В документальном фильме – эксклюзивные архивные материалы и уникальные съемки, в числе которых – масштабные антитеррористические учения, проведенные при подготовке к матчам Кубка конфедераций в Москве, тренировки групп специального назначения при освобождении заложников в жилом секторе, уникальные оперативные кадры работы сотрудников и специалистов Московского УФСБ при проверке антитеррористической готовности спортивных арен, ранее никогда и нигде не демонстрировавшиеся.
Продолжительность: 00:43:59
Качество видео: WEBRip [576i]
Видео: MPEG-2, 720х576@1024x576, ~6567 kbps
Аудио: AC3, 2 ch, 192 kbps
Mediainfo:
Общее
Идентификатор : 16 (0x10)
Полное имя : Московский щит_Быстрее_Выше_Сильнее.ts
Формат : MPEG-TS
Размер файла : 2,19 Гбайт
Продолжительность : 43 м. 59 с.
Режим общего битрейта : Переменный
Общий поток : 7112 Кбит/сек
Видео
Идентификатор : 1001 (0x3E9)
Идентификатор меню : 1 (0x1)
Формат : MPEG Video
Версия формата : Version 2
Профиль формата : Main@Main
Настройки формата : BVOP
Параметр BVOP формата : Да
Параметр матрицы формата : По умолчанию
Параметр GOP формата : M=3, N=12
Структура изображения : Frame
Идентификатор кодека : 2
Продолжительность : 43 м. 59 с.
Вид битрейта : Переменный
Битрейт : 6567 Кбит/сек
Максимальный битрейт : 9800 Кбит/сек
Ширина : 720 пикселей
Высота : 576 пикселей
Соотношение сторон : 16:9
Частота кадров : 25,000 кадров/сек
Стандарт вещания : PAL
Цветовое пространство : YUV
Субдискретизация насыщенности : 4:2:0
Битовая глубина : 8 бит
Тип развёртки : Чересстрочная
Порядок развёртки : Нижнее поле первое
Метод сжатия : С потерями
Бит/(Пиксели*Кадры) : 0.633
Временной код первого кадра : 00:00:02:02
Оригинал временного кода : Group of pictures header
GOP, открыто/закрыто : Закрыто
Размер потока : 2,02 Гбайт (92%)
Аудио
Идентификатор : 1002 (0x3EA)
Идентификатор меню : 1 (0x1)
Формат : AC-3
Формат/Информация : Audio Coding 3
Параметр Endianness формата : Big
Идентификатор кодека : 6
Продолжительность : 43 м. 59 с.
Вид битрейта : Постоянный
Битрейт : 192 Кбит/сек
Каналы : 2 канала
Расположение каналов : Front: L R
Частота : 48,0 КГц
Частота кадров : 31,250 кадров/сек (1536 SPF)
Битовая глубина : 16 бит
Метод сжатия : С потерями
Задержка видео : 160 мс.
Размер потока : 60,4 Мбайт (3%)
Язык : std
Язык, дополнительно : Clean effects
ServiceKind/String : Complete Main
Скриншоты:
Все одноименные релизы в КлубеВремя раздачи: Сб-Вс с 09:00 до 23:30 (до появления первых 3-5 скачавших)
[Профиль] [ЛС]
Показать сообщения:    
Ответить на тему

Текущее время: 25-Июн 16:51

Часовой пояс: UTC + 3



Вы не можете начинать темы
Вы не можете отвечать на сообщения
Вы не можете редактировать свои сообщения
Вы не можете удалять свои сообщения
Вы не можете голосовать в опросах
Вы не можете прикреплять файлы к сообщениям
Вы не можете скачивать файлы