Сегодня идет свободное скачивание без начисления Download

Контакт / Contact (Роберт Земекис / Robert Zemeckis) [1997, США, фантастика, триллер, драма, детектив, BDRip 720p]

Ответить на тему
 
Автор Сообщение

Bot ®

Стаж: 2 года 8 месяцев

Сообщений: 9

Создавать темы 13-Мар-2018 19:45

[Цитировать]

Контакт / Contact
Информация о фильме
Название: Контакт
Оригинальное название: Contact
Год выхода: 1997
Жанр: Фантастика, триллер, драма, детектив
Режисcёр: Роберт Земекис / Robert Zemeckis
В ролях: Джена Малоун, Дэвид Морс, Джоди Фостер, Джеффри Блейк, Уильям Фихтнер, Сами Честер, Тимоти МаНил, Лаура Елена Сурилло, Мэттью МакКонахи
О фильме:
Радиоастроном доктор Элли Эрроуэй мечтала о звездах с детских лет, когда вместе с отцом занималась радиолюбительством и выходила на связь в эфир. Она рано потеряла родителей и думала, что они где-то далеко, в пространстве…
Однажды во время изучения «музыки сфер» он получила искусственный сигнал с Веги. По расшифрованным данным была построена установка для путешествия. Вокруг грандиозного проекта сгрудились не только энтузиасты, верящие в контакт, но и те, кто хотел помешать: скептики, представители ортодоксальных учений и террористы, уничтожившие первую установку. На другой Элли отправилась в неведомое…
...из книги «3500 кинорецензий»
Фантастический фильм
Эта лента американского режиссёра Роберта Земекиса, протеже Стивена Спилберга, сразу же была воспринята как достойный ответ ученика вместо учителя на нападки своего рода «пришельцев в Голливуде» (в частности, Роланда Эммериха в суперхите «День независимости»), которые считали, что Спилберг, как создатель фильмов «Близкие контакты третьего вида» и «Е. Т., Инопланетянин», немало навредил человечеству, уверяя, что с инопланетными существами возможен нормальный контакт. А вот в картине Земекиса, созданной на основе романа бывшего астронома Карла Сэгана, который не дожил нескольких месяцев до премьеры, как раз присутствует детально разработанная научно-фантастическая тема поиска контакта с внеземными цивилизациями.
Справедливы мнения также и о том, что «Контакт» вступил — и довольно рискованно — в определённую оппозицию с американскими понятиями политкорректности, не только используя без специального разрешения и в ином контексте документальные съёмки тогдашнего президента США. Намного существеннее, что в этой ленте заостряется обычно микшируемый спор о соотношении веры в Бога и научного стремления к познанию Истины как раз у тех, кто занят, так или иначе, космическими исследованиями, а тем более — установлением Контакта, общением с Неведомым на глобальном уровне.
Однако ещё интереснее подспудный пласт «Контакта», что позволяет объяснить некоторые мелодраматические излишества, которые смущают даже сторонников картины. Для актрисы Джоди Фостер, почему-то (вопреки предварительным прогнозам) не номинированной на «Оскар», роль молодой женщины-радиоастронома Элинор Эрроуэй стала первой работой после трёхлетнего отсутствия на экране, а её предыдущей героиней была лишённая контакта с человеческой цивилизацией, кажущаяся инопланетянкой, почти глухонемая Нелл из одноимённого фильма. Роберт Земекис тоже впервые за три года после многократно оскароносного «Форреста Гампа» обратился к режиссуре, по-своему обыграв тему не вписываемого в современную действительность чудака — только теперь этот «Гамп женского рода» ищет взаимопонимания в далёком космосе, будучи оставленной близкими и непризнанной чужими людьми на Земле.
И обретение Элинор в «межгалактическом раю» (или же она видит это лишь в своём воображаемом путешествии сквозь световые годы, что не так уж и важно!) собственного рано утраченного отца очень похоже на то, как странствовавший через времена, мимо исторических событий и знаменитостей Форрест Гамп находил окончательное умиротворение в обычной семье, прежде всего — в заботе о более талантливом сыне. Вот и в намеренно пафосном финале «Контакта» дети, которых обучает Элинор Эрроуэй, надеясь на то, что в будущем именно они продвинутся ещё дальше в постижении Неизвестного, оправдывают её подлинные поиски контакта. А искала ли она что-то другое, кроме собственного покоя бытия?!
Сергей Кудрявцев
1997
Награды
Оскар, 1998 год
Номинации (1):
* Лучший звук
Золотой глобус, 1998 год
Номинации (1):
* Лучшая женская роль (драма) (Джоди Фостер)
Выпущено: США - Warner Bros. Pictures Co.
Продолжительность: 02:29:40
Файл
Качество: 720p BDRip |HiDt|
Контейнер:MKV
Видео: x.264, NTSC 23.976, 1280x534 , 5842 кбит/с
Звук #1: Русский (Дублированный), AC3, 6ch (L, C, R, Ls, Rs +LFE), 384 кбит/с |Мост Видео| / 48 kHz /
Звук #2: Английский (Оригинал), DTS, 6ch (L, C, R, Ls, Rs +LFE), 1536 кбит/с / 48 kHz /
Звук #3: Английский (Оригинал), Vorbis, 2ch (L,R), 80 кбит/с |Комментарии #1| / 48 kHz /
Звук #4: Английский (Оригинал), Vorbis, 2ch (L,R), 80 кбит/с |Комментарии #2| / 48 kHz /
Звук #5: Английский (Оригинал), Vorbis, 2ch (L,R), 80 кбит/с |Комментарии #3| / 48 kHz /
Субтитры: Английский, русский, болгарскийРелиз группы:

HDv 0day Team
MediaInfo
Общее
Уникальный идентификатор : 234699132745873844186575060617110157717 (0xB09168A4FFFC48578B845AC76652F995)
Полное имя : T:\Contact.1997.720p.BluRay.DTS.x264_HDv_0day_Team.mkv
Формат : Matroska
Версия формата : Version 2
Размер файла : 8,34 Гбайт
Продолжительность : 2 ч. 29 м.
Режим общего битрейта : Переменный
Общий поток : 7978 Кбит/сек
Название фильма : HDv_0day_Team
Дата кодирования : UTC 2009-10-10 13:07:09
Программа кодирования : mkvmerge v2.9.8 ('C'est le bon') built on Aug 13 2009 12:49:06
Библиотека кодирования : libebml v0.7.7 + libmatroska v0.8.1
Видео
Идентификатор : 1
Формат : AVC
Формат/Информация : Advanced Video Codec
Профиль формата : High@L4.1
Параметр CABAC формата : Да
Параметр ReFrames формата : 8 кадров
Идентификатор кодека : V_MPEG4/ISO/AVC
Продолжительность : 2 ч. 29 м.
Битрейт : 5842 Кбит/сек
Ширина : 1280 пикселей
Высота : 534 пикселя
Соотношение сторон : 2,40:1
Режим частоты кадров : Постоянный
Частота кадров : 23,976 кадра/сек
Цветовое пространство : YUV
Субдискретизация насыщенности : 4:2:0
Битовая глубина : 8 бит
Тип развёртки : Прогрессивная
Бит/(Пиксели*Кадры) : 0.356
Размер потока : 5,94 Гбайт (71%)
Заголовок : x264
Библиотека кодирования : x264 core 76 r1271 496d79d
Настройки программы : cabac=1 / ref=8 / deblock=1:-3:-3 / analyse=0x3:0x113 / me=tesa / subme=10 / psy=1 / psy_rd=1.0:0.0 / mixed_ref=1 / me_range=32 / chroma_me=1 / trellis=2 / 8x8dct=1 / cqm=0 / deadzone=21,11 / chroma_qp_offset=-2 / threads=6 / nr=0 / decimate=1 / mbaff=0 / bframes=6 / b_pyramid=1 / b_adapt=2 / b_bias=0 / direct=3 / wpredb=1 / keyint=250 / keyint_min=25 / scenecut=40 / rc=2pass / mbtree=0 / bitrate=5842 / ratetol=1.0 / qcomp=0.60 / qpmin=10 / qpmax=51 / qpstep=4 / cplxblur=20.0 / qblur=0.5 / ip_ratio=1.40 / pb_ratio=1.30 / aq=1:0.80
Язык : English
Default : Да
Forced : Нет
Аудио #1
Идентификатор : 2
Формат : AC-3
Формат/Информация : Audio Coding 3
Расширение режима : CM (complete main)
Параметр Endianness формата : Big
Идентификатор кодека : A_AC3
Продолжительность : 2 ч. 29 м.
Вид битрейта : Постоянный
Битрейт : 384 Кбит/сек
Каналы : 6 каналов
Расположение каналов : Front: L C R, Side: L R, LFE
Частота : 48,0 КГц
Частота кадров : 31,250 кадров/сек (1536 spf)
Битовая глубина : 16 бит
Метод сжатия : С потерями
Размер потока : 411 Мбайт (5%)
Заголовок : AC3 5.1 384 kbps |Дубляж|Мост Видео|
Язык : Russian
Default : Да
Forced : Нет
Аудио #2
Идентификатор : 3
Формат : DTS
Формат/Информация : Digital Theater Systems
Режим : 16
Параметр Endianness формата : Big
Идентификатор кодека : A_DTS
Продолжительность : 2 ч. 29 м.
Вид битрейта : Постоянный
Битрейт : 1510 Кбит/сек
Каналы : 6 каналов
Расположение каналов : Front: L C R, Side: L R, LFE
Частота : 48,0 КГц
Частота кадров : 93,750 кадра/сек (512 spf)
Битовая глубина : 24 бит
Метод сжатия : С потерями
Размер потока : 1,58 Гбайт (19%)
Заголовок : DTS 5.1 1536 kbps |Оригинал|
Язык : English
Default : Нет
Forced : Нет
Аудио #3
Идентификатор : 4
Формат : Vorbis
Параметр Floor формата : 1
Идентификатор кодека : A_VORBIS
Продолжительность : 2 ч. 29 м.
Вид битрейта : Переменный
Битрейт : 80,0 Кбит/сек
Каналы : 2 канала
Частота : 48,0 КГц
Метод сжатия : С потерями
Размер потока : 85,6 Мбайт (1%)
Заголовок : Commentary 1
Библиотека кодирования : aoTuV b5c (UTC 2008-12-15)
Язык : English
Default : Нет
Forced : Нет
Аудио #4
Идентификатор : 5
Формат : Vorbis
Параметр Floor формата : 1
Идентификатор кодека : A_VORBIS
Продолжительность : 2 ч. 29 м.
Вид битрейта : Переменный
Битрейт : 80,0 Кбит/сек
Каналы : 2 канала
Частота : 48,0 КГц
Метод сжатия : С потерями
Размер потока : 85,6 Мбайт (1%)
Заголовок : Commentary 2
Библиотека кодирования : aoTuV b5c (UTC 2008-12-15)
Язык : English
Default : Нет
Forced : Нет
Аудио #5
Идентификатор : 6
Формат : Vorbis
Параметр Floor формата : 1
Идентификатор кодека : A_VORBIS
Продолжительность : 2 ч. 29 м.
Вид битрейта : Переменный
Битрейт : 80,0 Кбит/сек
Каналы : 2 канала
Частота : 48,0 КГц
Метод сжатия : С потерями
Размер потока : 85,6 Мбайт (1%)
Заголовок : Commentary 3
Библиотека кодирования : aoTuV b5c (UTC 2008-12-15)
Язык : English
Default : Нет
Forced : Нет
Текст #1
Идентификатор : 7
Формат : UTF-8
Идентификатор кодека : S_TEXT/UTF8
Идентификатор кодека/Информация : UTF-8 Plain Text
Язык : Russian
Default : Нет
Forced : Нет
Текст #2
Идентификатор : 8
Формат : UTF-8
Идентификатор кодека : S_TEXT/UTF8
Идентификатор кодека/Информация : UTF-8 Plain Text
Язык : English
Default : Да
Forced : Нет
Текст #3
Идентификатор : 9
Формат : UTF-8
Идентификатор кодека : S_TEXT/UTF8
Идентификатор кодека/Информация : UTF-8 Plain Text
Язык : Bulgarian
Default : Нет
Forced : Нет
Скриншоты
[Профиль] [ЛС]
Показать сообщения:    
Ответить на тему

Текущее время: 25-Июн 16:44

Часовой пояс: UTC + 3



Вы не можете начинать темы
Вы не можете отвечать на сообщения
Вы не можете редактировать свои сообщения
Вы не можете удалять свои сообщения
Вы не можете голосовать в опросах
Вы не можете прикреплять файлы к сообщениям
Вы не можете скачивать файлы