Сегодня идет свободное скачивание без начисления Download

(Avant-garde) David Thomas And Two Pale Boys - Erewhon - 1996, FLAC (image+.cue), lossless

Ответить на тему
 
Автор Сообщение

Bot ®

Стаж: 4 года 9 месяцев

Сообщений: 11

Создавать темы 13-Мар-2018 19:45

[Цитировать]

David Thomas And Two Pale Boys - Erewhon
Жанр: Avant-garde
Год выпуска диска: 1996
Производитель диска: UK
Аудио кодек: FLAC
Тип рипа: image+.cue
Битрейт аудио: lossless
Продолжительность: 1:04:59
Трэклист:
01 [19:31] Obsession
02 [02:59] Planet Of Fools
03 [03:48] Nowheresville
04 [06:02] Fire
05 [03:22] Lantern
06 [05:44] Morbid Sky
07 [03:53] Weird Cornfields
08 [08:30] Kathleen
09 [11:15] Highway 61 Revisited
Доп. информация:
Отчёт EAC
Exact Audio Copy V0.99 prebeta 5 from 4. May 2009
EAC extraction logfile from 11. October 2009, 7:56
David Thomas And Two Pale Boys / Erewhon
Used drive : Optiarc DVD RW AD-7241S Adapter: 5 ID: 0
Read mode : Secure
Utilize accurate stream : Yes
Defeat audio cache : Yes
Make use of C2 pointers : No
Read offset correction : 48
Overread into Lead-In and Lead-Out : No
Fill up missing offset samples with silence : Yes
Delete leading and trailing silent blocks : No
Null samples used in CRC calculations : No
Used interface : Installed external ASPI interface
Used output format : Internal WAV Routines
Sample format : 44.100 Hz; 16 Bit; Stereo
TOC of the extracted CD
Track | Start | Length | Start sector | End sector
---------------------------------------------------------
1 | 0:00.00 | 19:31.02 | 0 | 87826
2 | 19:31.02 | 2:58.48 | 87827 | 101224
3 | 22:29.50 | 3:47.60 | 101225 | 118309
4 | 26:17.35 | 6:01.50 | 118310 | 145434
5 | 32:19.10 | 3:21.70 | 145435 | 160579
6 | 35:41.05 | 5:44.28 | 160580 | 186407
7 | 41:25.33 | 3:52.48 | 186408 | 203855
8 | 45:18.06 | 8:30.35 | 203856 | 242140
9 | 53:48.41 | 11:15.35 | 242141 | 292800
Range status and errors
Selected range
Filename E:\Music\Lossless Collection\D\David Thomas And Two Pale Boys 1994 Erewhon\David Thomas And Two Pale Boys - Erewhon.wav
Peak level 99.0 %
Range quality 99.2 %
Copy CRC C645AC05
Copy finished
No errors occurred
End of status report
Отчёт audiochecker
AUDIOCHECKER v2.0 beta (build 457) - by Dester - opdester@freemail.hu
~~~~~~~~~~~~~~~~~~~~~~~~~~~~~~~~~~
-=== DO NOT EDIT THIS FILE! ===-
Path: ...\David Thomas And Two Pale Boys 1994 Erewhon
1 -=- David Thomas And Two Pale Boys - Erewhon.flac -=- CDDA (100%)
173072164
Coвeршeннo oбaлдeннaя штукa. Сoстaв - гитaрa, бaян, трубa с примoчкaми. Звуки - нeвeрoятнeйшиe.
http://www.discogs.com/David-Thomas-And-Two-Pale-Boys-Erewhon/release/1752569
[Профиль] [ЛС]
Показать сообщения:    
Ответить на тему

Текущее время: 25-Июн 16:44

Часовой пояс: UTC + 3



Вы не можете начинать темы
Вы не можете отвечать на сообщения
Вы не можете редактировать свои сообщения
Вы не можете удалять свои сообщения
Вы не можете голосовать в опросах
Вы не можете прикреплять файлы к сообщениям
Вы не можете скачивать файлы