Сегодня идет свободное скачивание без начисления Download

(College Rock, Geek Rock) They Might Be Giants - Lincoln - 1988, FLAC (tracks+.cue), lossless

Ответить на тему
 
Автор Сообщение

Bot ®

Стаж: 2 года 11 месяцев

Сообщений: 8

Создавать темы 13-Мар-2018 20:00

[Цитировать]

They Might Be Giants - Lincoln
Жанр: College Rock, Geek Rock
Год выпуска диска: 1988
Аудио кодек: FLAC
Тип рипа: tracks+.cue
Битрейт аудио: lossless
Продолжительность: 39:32
Трэклист:
01 - Ana Ng
02 - Cowtown
03 - Lie Still, Little Bottle
04 - Purple Toupee
05 - Cage & Aquarium
06 - Where Your Eyes Don't Go
07 - Piece of Dirt
08 - Mr. Me
09 - Pencil Rain
10 - The World's Address
11 - I've Got a Match
12 - Santa's Beard
13 - You'll Miss Me
14 - They'll Need a Crane
15 - Shoehorn With Teeth
16 - Stand on Your Own Head
17 - Snowball in Hell
18 - Kiss Me, Son of God
Доп. информация:
Отчёт EAC
EAC extraction logfile from 13. September 2007, 19:02 for CD
They Might Be Giants / Lincoln
Used drive : PIONEER DVD-RW DVR-108 Adapter: 0 ID: 1
Read mode : Secure with NO C2, accurate stream, disable cache
Read offset correction : 48
Overread into Lead-In and Lead-Out : No
Used output format : C:\Program Files\Exact Audio Copy\flac.exe (User Defined Encoder)
192 kBit/s
Additional command line options : -V -8 -T "artist=%a" -T "title=%t" -T "album=%g" -T "date=%y" -T "tracknumber=%n" -T "genre=%m" %s
Other options :
Fill up missing offset samples with silence : Yes
Delete leading and trailing silent blocks : No
Native Win32 interface for Win NT & 2000
Track 1
Filename E:\Soulseek\01 - They Might Be Giants - Ana Ng.wav
Pre-gap length 0:00:02.69
Peak level 87.6 %
Track quality 100.0 %
Test CRC 5F2D45C4
Copy CRC 5F2D45C4
Copy OK
Track 2
Filename E:\Soulseek\02 - They Might Be Giants - Cowtown.wav
Pre-gap length 0:00:02.69
Peak level 91.1 %
Track quality 100.0 %
Test CRC 88915666
Copy CRC 88915666
Copy OK
Track 3
Filename E:\Soulseek\03 - They Might Be Giants - Lie Still, Little Bottle.wav
Pre-gap length 0:00:02.24
Peak level 87.4 %
Track quality 100.0 %
Test CRC A51322FA
Copy CRC A51322FA
Copy OK
Track 4
Filename E:\Soulseek\04 - They Might Be Giants - Purple Toupee.wav
Pre-gap length 0:00:01.16
Peak level 90.8 %
Track quality 99.9 %
Test CRC 472D5F12
Copy CRC 472D5F12
Copy OK
Track 5
Filename E:\Soulseek\05 - They Might Be Giants - Cage & Aquarium.wav
Pre-gap length 0:00:03.86
Peak level 93.5 %
Track quality 100.0 %
Test CRC 5299B308
Copy CRC 5299B308
Copy OK
Track 6
Filename E:\Soulseek\06 - They Might Be Giants - Where Your Eyes Don't Go.wav
Pre-gap length 0:00:03.53
Peak level 89.1 %
Track quality 100.0 %
Test CRC 9CD015B1
Copy CRC 9CD015B1
Copy OK
Track 7
Filename E:\Soulseek\07 - They Might Be Giants - Piece of Dirt.wav
Pre-gap length 0:00:02.90
Peak level 81.9 %
Track quality 100.0 %
Test CRC E165958B
Copy CRC E165958B
Copy OK
Track 8
Filename E:\Soulseek\08 - They Might Be Giants - Mr. Me.wav
Pre-gap length 0:00:03.49
Peak level 88.7 %
Track quality 100.0 %
Test CRC 09FAB1EC
Copy CRC 09FAB1EC
Copy OK
Track 9
Filename E:\Soulseek\09 - They Might Be Giants - Pencil Rain.wav
Pre-gap length 0:00:02.46
Peak level 85.9 %
Track quality 100.0 %
Test CRC B6C26E12
Copy CRC B6C26E12
Copy OK
Track 10
Filename E:\Soulseek\10 - They Might Be Giants - The World's Address.wav
Pre-gap length 0:00:02.46
Peak level 87.1 %
Track quality 99.9 %
Test CRC 2783B2F0
Copy CRC 2783B2F0
Copy OK
Track 11
Filename E:\Soulseek\11 - They Might Be Giants - I've Got a Match.wav
Pre-gap length 0:00:02.42
Peak level 94.4 %
Track quality 100.0 %
Test CRC FD1B3339
Copy CRC FD1B3339
Copy OK
Track 12
Filename E:\Soulseek\12 - They Might Be Giants - Santa's Beard.wav
Pre-gap length 0:00:03.26
Peak level 97.1 %
Track quality 100.0 %
Test CRC 29FF376D
Copy CRC 29FF376D
Copy OK
Track 13
Filename E:\Soulseek\13 - They Might Be Giants - You'll Miss Me.wav
Pre-gap length 0:00:02.10
Peak level 93.3 %
Track quality 100.0 %
Test CRC FDEC88E2
Copy CRC FDEC88E2
Copy OK
Track 14
Filename E:\Soulseek\14 - They Might Be Giants - They'll Need a Crane.wav
Pre-gap length 0:00:01.73
Peak level 86.4 %
Track quality 100.0 %
Test CRC D767FD29
Copy CRC D767FD29
Copy OK
Track 15
Filename E:\Soulseek\15 - They Might Be Giants - Shoehorn with Teeth.wav
Pre-gap length 0:00:03.40
Peak level 83.7 %
Track quality 100.0 %
Test CRC 3A8C418D
Copy CRC 3A8C418D
Copy OK
Track 16
Filename E:\Soulseek\16 - They Might Be Giants - Stand on Your Own Head.wav
Pre-gap length 0:00:02.26
Peak level 88.9 %
Track quality 100.0 %
Test CRC 8C229FA2
Copy CRC 8C229FA2
Copy OK
Track 17
Filename E:\Soulseek\17 - They Might Be Giants - Snowball in Hell.wav
Pre-gap length 0:00:03.82
Peak level 78.8 %
Track quality 100.0 %
Test CRC C64A495A
Copy CRC C64A495A
Copy OK
Track 18
Filename E:\Soulseek\18 - They Might Be Giants - Kiss Me, Son of God.wav
Pre-gap length 0:00:04.10
Peak level 75.6 %
Track quality 100.0 %
Test CRC C3AFDE5E
Copy CRC C3AFDE5E
Copy OK
No errors occured
End of status report
Audiochecker
AUDIOCHECKER v2.0 beta (build 457) - by Dester - opdester@freemail.hu
~~~~~~~~~~~~~~~~~~~~~~~~~~~~~~~~~~
-=== DO NOT EDIT THIS FILE! ===-
Path: ...\They Might Be Giants - 1988 - Lincoln [FLAC]
01 -=- 01 - They Might Be Giants - Ana Ng.flac -=- CDDA (99%)
02 -=- 02 - They Might Be Giants - Cowtown.flac -=- CDDA (100%)
03 -=- 03 - They Might Be Giants - Lie Still, Little Bottle.flac -=- CDDA (100%)
04 -=- 04 - They Might Be Giants - Purple Toupee.flac -=- CDDA (99%)
05 -=- 05 - They Might Be Giants - Cage & Aquarium.flac -=- CDDA (100%)
06 -=- 06 - They Might Be Giants - Where Your Eyes Don't Go.flac -=- CDDA (100%)
07 -=- 07 - They Might Be Giants - Piece of Dirt.flac -=- CDDA (100%)
08 -=- 08 - They Might Be Giants - Mr. Me.flac -=- CDDA (100%)
09 -=- 09 - They Might Be Giants - Pencil Rain.flac -=- CDDA (100%)
10 -=- 10 - They Might Be Giants - The World's Address.flac -=- CDDA (100%)
11 -=- 11 - They Might Be Giants - I've Got a Match.flac -=- CDDA (100%)
12 -=- 12 - They Might Be Giants - Santa's Beard.flac -=- CDDA (100%)
13 -=- 13 - They Might Be Giants - You'll Miss Me.flac -=- CDDA (100%)
14 -=- 14 - They Might Be Giants - They'll Need a Crane.flac -=- CDDA (100%)
15 -=- 15 - They Might Be Giants - Shoehorn with Teeth.flac -=- CDDA (99%)
16 -=- 16 - They Might Be Giants - Stand on Your Own Head.flac -=- CDDA (99%)
17 -=- 17 - They Might Be Giants - Snowball in Hell.flac -=- CDDA (100%)
18 -=- 18 - They Might Be Giants - Kiss Me, Son of God.flac -=- CDDA (100%)
Summary 99,78% CDDA
117053348
Источник:

Релизер: zhilkin
Другие альбомы группы:
1990 - Flood
1992 - Apollo 18
2002 - No!
2007 - The Else
[Профиль] [ЛС]
Показать сообщения:    
Ответить на тему

Текущее время: 25-Июн 16:48

Часовой пояс: UTC + 3



Вы не можете начинать темы
Вы не можете отвечать на сообщения
Вы не можете редактировать свои сообщения
Вы не можете удалять свои сообщения
Вы не можете голосовать в опросах
Вы не можете прикреплять файлы к сообщениям
Вы не можете скачивать файлы