Сегодня идет свободное скачивание без начисления Download

Вторая мировая. Охотники за сокровищами / World War 2: Treasure Hunters (2017) HDTVRip (8 серий из 8)

Ответить на тему
 
Автор Сообщение

Bot ®

Стаж: 1 год 2 месяца

Сообщений: 3

Создавать темы 13-Июн-2018 16:46

[Цитировать]

Вторая мировая. Охотники за сокровищами / World War 2: Treasure Hunters (2017) HDTVRip (8 серий из 8)- Телекомпания: Великобритания, AETN History
Жанр: Документальный, война, история
Описание:
Подлинная история Второй мировой войны спрятана глубоко под землей по всей Великобритании. Кладоискатель Стивен Тейлор и Саггс, лидер группы «Madness», рассказывают об исторических находках, связанных со Второй мировой. Используя новейшие поисковые технологии и старые карты, они определяют места для раскопок, включая бывшие военные базы, аэродромы, казармы и лагеря для военнопленных. Обнаружив артефакт, искатели превращаются в детективов, ведь за каждой находкой стоит человеческая история, тесно связанная с историей войны. Они изучают архивы, встречаются с очевидцами, экспертами и историками, чтобы понять, что именно происходило на месте раскопок. В фильме использованы подлинные архивные фотографии и кинокадры, а также компьютерная реконструкция тех давних событий.
Релиз от: alf62
Продолжительность: 8 х ~ 00:43:00
Качество видео: HDTVRip
Перевод: Дублированный
Видео: Xvid, 720x400, ~1900 Kbps
Аудио: AC3, 2 ch, 192 Kbps
Список серий
1. Германский бомбардировщик в Ливерпуле / German Bomber in Liverpool
2. Дуглас Бадер и Даксфордсие пилоты / Douglas Bader and the Duxford Fliers
3. Танк в винограднике / Tank in a Vineyard
4. 82-я воздушно-десантная дивизия и немецкие военнопленные / 82nd Airborne and German POWs
5. Американские бомбардировщики в Саффолке / American Bombers in Suffolk
6. Тайны высадки в Нормандии
7. Фабрика бомб / Bomb Factory
8. Американские пилоты / American Fly Boys
Mediainfo:
Вторая мировая Охотники за сокровищами\World.War.2.Treasure.Hunters.2017.XviD.HDTVRip.alf62\2.Дуглас.Бадер.и.Даксфордсие.пилоты.HDTVRip.alf62.avi
Формат : AVI
Формат/Информация : Audio Video Interleave
Размер файла : 660 Мбайт
Продолжительность : 43 м.
Общий поток : 2102 Кбит/сек
Программа кодирования : VirtualDubMod 1.5.10.3 | www.virtualdub-fr.org || (build 2550/release)
Библиотека кодирования : VirtualDubMod build 2550/release
Видео
Идентификатор : 0
Формат : MPEG-4 Visual
Профиль формата : Advanced Simple@L5
Параметр BVOP формата : 2
Параметр QPel формата : Нет
Параметр GMC формата : Без точки перехода
Параметр матрицы формата : Default (MPEG)
Идентификатор кодека : XVID
Идентификатор кодека/Подсказка : XviD
Продолжительность : 43 м.
Битрейт : 1900 Кбит/сек
Ширина : 720 пикселей
Высота : 400 пикселей
Соотношение сторон : 16:9
Частота кадров : 25,000 кадров/сек
Цветовое пространство : YUV
Субдискретизация насыщенности : 4:2:0
Битовая глубина : 8 бит
Тип развёртки : Прогрессивная
Метод сжатия : С потерями
Бит/(Пиксели*Кадры) : 0.264
Размер потока : 597 Мбайт (90%)
Библиотека кодирования : XviD 73
Аудио
Идентификатор : 1
Формат : AC-3
Формат/Информация : Audio Coding 3
Расширение режима : CM (complete main)
Параметр Endianness формата : Big
Идентификатор кодека : 2000
Продолжительность : 43 м.
Вид битрейта : Постоянный
Битрейт : 192 Кбит/сек
Каналы : 2 канала
Расположение каналов : Front: L R
Частота : 48,0 КГц
Битовая глубина : 16 бит
Метод сжатия : С потерями
Размер потока : 60,3 Мбайт (9%)
Выравнивание : Разделение по промежуткам
Продолжительность промежутка : 40 мс. (1,00 видеокадр)
Время предзагрузки промежутка : 500 мс.
Скриншоты:
Дополнительные скриншоты:
Все одноименные релизы в КлубеВремя раздачи: до появления первых 3-5 скачавших
[Профиль] [ЛС]
Показать сообщения:    
Ответить на тему

Текущее время: 16-Авг 07:16

Часовой пояс: UTC + 3



Вы не можете начинать темы
Вы не можете отвечать на сообщения
Вы не можете редактировать свои сообщения
Вы не можете удалять свои сообщения
Вы не можете голосовать в опросах
Вы не можете прикреплять файлы к сообщениям
Вы не можете скачивать файлы