Сегодня идет свободное скачивание без начисления Download

Формула 1. Сезон 2018. 5-й Этап. Гран-при Испании. Гонка (13.05.2018) HDTV [H.264/1080i]

Ответить на тему
 
Автор Сообщение

Bot ®

Стаж: 4 года 4 месяца

Сообщений: 9

Создавать темы 13-Июн-2018 17:46

[Цитировать]

Формула 1. Сезон 2018. 5-й Этап. Гран-при Испании. Гонка (13.05.2018) HDTV [H.264/1080i]
«2018 Formula 1 Gran Premio De Espana Pirelli»
- Телекомпания: Матч ТВ HD
Жанр: Спорт
Комментаторы: Алексей Попов, Наталья Фабричнова
Описание: 13 мая 2018 года, воскресенье. 16:10 МСК
5-й Этап сезона 2018 года. Гран-при Испании. Монмело (Испания).
Гонка
Кругов: 66 - Длина круга: 4,655 км
Длина гонки: 307,104 км
Арена: Автодром Барселона-Каталунья (Монмело, Испания)
Релиз от: Striker
Продолжительность: 01:45:36
Качество видео: HDTV
Язык озвучки: Русский, Интершум
Субтитры: отсутствуют
Видео: AVC/H.264, 1920x1080 (16:9), ~10,5 Мbps
Аудио #1: MP2, 2 ch, 48 kHz, 192 Kbps | Русский
Аудио #2: MP2, 2 ch, 48 kHz, 192 Kbps | Интершум
Mediainfo:
Общее
Уникальный идентификатор : 137374419623993900168666354312549401556 (0x675959D04CFBF0AA36A3AFC8DB2E83D4)
Полное имя : F:\SPORT\Формула 1\(13.05.2018)_FIA Formula 1.R05.Gran Premio De Espana 2018. Race_1080i.mkv
Формат : Matroska
Версия формата : Version 4 / Version 2
Размер файла : 8,04 Гбайт
Продолжительность : 1 ч. 45 м.
Общий поток : 10,9 Мбит/сек
Дата кодирования : UTC 2018-05-13 19:13:57
Программа кодирования : mkvmerge v23.0.0 ('The Bride Said No') 32-bit
Библиотека кодирования : libebml v1.3.6 + libmatroska v1.4.9
Видео
Идентификатор : 1
Формат : AVC
Формат/Информация : Advanced Video Codec
Профиль формата : High@L4
Настройки формата : CABAC / 4 Ref Frames
Параметр CABAC формата : Да
Параметр RefFrames формата : 4 кадра
Идентификатор кодека : V_MPEG4/ISO/AVC
Продолжительность : 1 ч. 45 м.
Битрейт : 10,5 Мбит/сек
Ширина : 1920 пикселей
Высота : 1080 пикселей
Соотношение сторон : 16:9
Режим частоты кадров : Переменный
Частота кадров : 50,000 кадров/сек
Частота кадров в оригинале : 25,000 кадров/сек
Стандарт вещания : Component
Цветовое пространство : YUV
Субдискретизация насыщенности : 4:2:0
Битовая глубина : 8 бит
Тип развёртки : Чересстрочная
Метод сохранения типа развёртки : Раздельные поля
Порядок развёртки : Верхнее поле первое
Бит/(Пиксели*Кадры) : 0.101
Размер потока : 7,75 Гбайт (96%)
Default : Да
Forced : Нет
Цветовой диапазон : Limited
Основные цвета : BT.709
Характеристики трансфера : BT.709
Коэффициенты матрицы : BT.709
Аудио #1
Идентификатор : 2
Формат : MPEG Audio
Версия формата : Version 1
Профиль формата : Layer 2
Идентификатор кодека : A_MPEG/L2
Идентификатор кодека/Подсказка : MP2
Продолжительность : 1 ч. 45 м.
Вид битрейта : Постоянный
Битрейт : 192 Кбит/сек
Каналы : 2 канала
Частота : 48,0 КГц
Частота кадров : 41,667 кадра/сек (1152 SPF)
Метод сжатия : С потерями
Размер потока : 145 Мбайт (2%)
Язык : Russian
Default : Да
Forced : Нет
Аудио #2
Идентификатор : 3
Формат : MPEG Audio
Версия формата : Version 1
Профиль формата : Layer 2
Идентификатор кодека : A_MPEG/L2
Идентификатор кодека/Подсказка : MP2
Продолжительность : 1 ч. 45 м.
Вид битрейта : Постоянный
Битрейт : 192 Кбит/сек
Каналы : 2 канала
Частота : 48,0 КГц
Частота кадров : 41,667 кадра/сек (1152 SPF)
Метод сжатия : С потерями
Размер потока : 145 Мбайт (2%)
Язык : Несколько языков
Default : Нет
Forced : Нет
Скриншоты:
Все одноименные релизы в КлубеВремя раздачи: 24/7 (до появления первых 3-5 скачавших)
[Профиль] [ЛС]
Показать сообщения:    
Ответить на тему

Текущее время: 19-Июн 03:59

Часовой пояс: UTC + 3



Вы не можете начинать темы
Вы не можете отвечать на сообщения
Вы не можете редактировать свои сообщения
Вы не можете удалять свои сообщения
Вы не можете голосовать в опросах
Вы не можете прикреплять файлы к сообщениям
Вы не можете скачивать файлы