Сегодня идет свободное скачивание без начисления Download

Леонардо: Миссия Мона Лиза / Leo Da Vinci: Mission Mona Lisa (2018) WEB-DL [H.264/720p-LQ]

Ответить на тему
 
Автор Сообщение

Bot ®

Стаж: 3 года 9 месяцев

Сообщений: 9

Создавать темы 13-Июн-2018 18:01

[Цитировать]

Леонардо: Миссия Мона Лиза / Leo Da Vinci: Mission Mona Lisa (2018) WEB-DL - Производство: Италия | Gruppo Alcuni
Жанр: Приключения, семейный
Режиссер: Серджо Манфио
Персонажи: Алекс Полидори, Эмануэла Ионика, Габриэль Патриарка, Арианна Виньоли, Джулио Бартоломеи, Роберто Драгетти, Франко Маннелла, Роберто Стокки, Давид Джарболино, Стефано Мондини
Описание:
Леонардо живёт спокойной и мирной жизнью, посвятив себя изобретательству. Его друг Лоренцо во всём помогает товарищу и поддерживает во всех начинаниях, а вот прекрасная Джоконда насмехается над странными идеями Леонардо. Но вскоре в жизни девушки происходит несчастье — в ее доме происходит пожар, и она остается ни с чем. Однажды в их город забредает рассказчик, который упоминает о потерянном сокровище, которое ещё никому не удавалось найти. Ребята решают, что им повезёт, и отправляются в удивительное путешествие.

Возраст: 0+ (для любой зрительской аудитории)
Дата мировой премьеры: 11 января 2018
Дата российской премьеры: 19 апреля 2018, «АКМ»
Цифровой релиз: 10 мая 2018, «АКМ»
Продолжительность: 01:22:05
Качество видео: WEB-DL
Перевод: Дублированный (iTunes)
Субтитры: Отсутствуют
Видео: AVC/H.264, 1280x572 (2.25:1), ~3922 kbps, 24.00 fps
Аудио: AC3, 6 ch, 48.0 kHz, 384 kbps CBR
Mediainfo:
General
Unique ID : 149695251321130171758571593260875407068 (0x709E41B76E7BE17B150E9E5597745EDC)
Complete name : D:\Leo_Da_Vinci_Mission_Mona_Lisa_2018_WEB-DLRip_720p.mkv
Format : Matroska
Format version : Version 4 / Version 2
File size : 2.52 GiB
Duration : 1 h 22 min
Overall bit rate : 4 393 kb/s
Movie name : Леонардо: Миссия Мона Лиза
Description : Леонардо живёт спокойной и мирной жизнью, посвятив себя изобретательству. Его друг Лоренцо во всём
Writing application : Lavf56.36.100
Writing library : Lavf56.36.100
ARTIST : Серджо Манфио
COMPILATION : 0
DATE : 2018-04-19T07:00:00Z
GENRE : Для всей семьи
HD_VIDEO : 1
ITUNEXTC : ru-movie|0+|100|
ITUNMOVI : <?xml version="1.0" encoding="UTF-8" standalone="no"?> / <!DOCTYPE plist PUBLIC "-//Apple Computer//DTD PLIST 1.0//EN" "http://www.apple.com/DTDs/PropertyList-1.0.dtd"> / <plist version="1.0"> / <dict> / <key>studio</key><string>Gruppo Alcuni</string> / <key>cast</key> / <array> / <dict> / <key>name</key><string>Алекс Полидори</string> / <key>adamId</key><integer>1377522401</integer> / </dict> / <dict> / <key>name</key><string>Эмануэла Ионика</string> / <key>adamId</key><integer>1377522404</integer> / </dict> / <dict> / <key>name</key><string>Габриэль Патриарка</string> / <key>adamId</key><integer>1377522407</integer> / </dict> / <dict> / <key>name</key><string>Арианна Виньоли</string> / <key>adamId</key><integer>1377522410</integer> / </dict> / <dict> / <key>name</key><string>Джулио Бартоломеи</string> / <key>adamId</key><integer>1377522413</integer> / </dict> / <dict> / <key>name</key><string>Роберто Драгетти</string> / <key>adamId</key><integer>1377522416</integer> / </dict> / <dict> / <key>name</key><string>Франко Маннелла</string> / <key>adamId</key><integer>1377522419</integer> / </dict> / <dict> / <key>name</key><string>Роберто Стокки</string> / <key>adamId</key><integer>1377522422</integer> / </dict> / </array> / <key>directors</key> / <array> / <dict> / <key>name</key><string>Серджо Манфио</string> / <key>adamId</key><integer>1377522425</integer> / </dict> / </array> / <key>codirectors</key> / <array> / </array> / <key>producers</key> / <array> / <dict> / <key>name</key><string>Фабио Теста</string> / <key>adamId</key><integer>1377522428</integer> / </dict> / </array> / <key>screenwriters</key> / <array> / <dict> / <key>name</key><string>Серджо Манфио</string> / <key>adamId</key><integer>1377522425</integer> / </dict> / <dict> / <key>name</key><string>Франческо Манфио</string> / <key>adamId</key><integer>1377522581</integer> / </dict> / <dict> / <key>name</key><string>Анна Манфио</string> / <key>adamId</key><integer>1377522584</integer> / </dict> / <dict> / <key>name</key><string>Давид Стефанато</string> / <key>adamId</key><integer>1377522587</integer> / </dict> / </array> / </dict> / </plist>
MEDIA_TYPE : 9
PURCHASE_DATE : 2018-05-13 11:15:26
SORT_ARTIST : Серджо Манфио
SORT_NAME : Леонардо: Миссия Мона Лиза
SYNOPSIS : Леонардо живёт спокойной и мирной жизнью, посвятив себя изобретательству. Его друг Лоренцо во всём помогает товарищу и поддерживает во всех начинаниях, а вот прекрасная Джоконда насмехается над странными идеями Леонардо. Но вскоре в жизни девушки происходит несчастье — в ее доме происходит пожар, и она остается ни с чем. Однажды в их город забредает рассказчик, который упоминает о потерянном сокровище, которое ещё никому не удавалось найти. Ребята решают, что им повезёт, и отправляются в удивительное путешествие.
Video
ID : 1
Format : AVC
Format/Info : Advanced Video Codec
Format profile : High@L3.1
Format settings, CABAC : No
Format settings, ReFrames : 2 frames
Codec ID : V_MPEG4/ISO/AVC
Duration : 1 h 22 min
Bit rate : 3 922 kb/s
Width : 1 280 pixels
Height : 572 pixels
Display aspect ratio : 2.25:1
Frame rate mode : Constant
Frame rate : 24.000 FPS
Color space : YUV
Chroma subsampling : 4:2:0
Bit depth : 8 bits
Scan type : Progressive
Bits/(Pixel*Frame) : 0.223
Stream size : 2.25 GiB (89%)
Writing library : JVT/AVC Coding
Language : English
Default : Yes
Forced : No
Encoded date : UTC 2018-05-13 11:25:57
Color range : Limited
Color primaries : BT.709
Transfer characteristics : BT.709
Matrix coefficients : BT.709
Audio
ID : 2
Format : AC-3
Format/Info : Audio Coding 3
Format settings, Endianness : Big
Codec ID : A_AC3
Duration : 1 h 22 min
Bit rate mode : Constant
Bit rate : 384 kb/s
Channel(s) : 6 channels
Channel positions : Front: L C R, Side: L R, LFE
Sampling rate : 48.0 kHz
Frame rate : 31.250 FPS (1536 spf)
Bit depth : 16 bits
Compression mode : Lossy
Delay relative to video : -47 ms
Stream size : 225 MiB (9%)
Writing library : Lavc56.41.100 ac3
Language : Russian
Service kind : Complete Main
Default : Yes
Forced : No
Encoded date : UTC 2018-05-13 11:25:57
Скриншоты:
Все одноименные релизы в КлубеВремя раздачи: 24/7 (до появления первых 3-5 скачавших)
[Профиль] [ЛС]
Показать сообщения:    
Ответить на тему

Текущее время: 19-Июн 04:01

Часовой пояс: UTC + 3



Вы не можете начинать темы
Вы не можете отвечать на сообщения
Вы не можете редактировать свои сообщения
Вы не можете удалять свои сообщения
Вы не можете голосовать в опросах
Вы не можете прикреплять файлы к сообщениям
Вы не можете скачивать файлы