Сегодня идет свободное скачивание без начисления Download

Красный воробей / Red Sparrow (2018) BDRip [720p] ATV

Ответить на тему
 
Автор Сообщение

Bot ®

Стаж: 2 года 1 месяц

Сообщений: 9

Создавать темы 13-Июн-2018 18:18

[Цитировать]

Красный воробей / Red Sparrow (2018) BDRip [720p] ATV
«Seductive. Deceptive. Deadly»
- Год выпуска: 2018
Производство: США
Жанр: Триллер, драма, детектив
Продолжительность: 02:20:13
Перевод: Дублированный (Blu-ray EUR)
Субтитры: Русские, Английские
Режиссер: Френсис Лоуренс
Актеры: Дженнифер Лоуренс, Джоэл Эдгертон, Маттиас Шонартс, Шарлотта Рэмплинг, Мэри-Луиз Паркер, Киран Хайндс, Джоэли Ричардсон, Билл Кэмп, Джереми Айронс, Текла Рютен
Мировая премьера: 19 февраля 2018

Описание: После вынужденного окончания карьеры из-за профессиональной травмы Доминика Егорова и ее мать сталкиваются с мрачным и неопределенным будущим. Героиня соглашается стать рекрутом в Школе Воробьев, секретной службе, которая обучает уникальных молодых людей использовать свое тело и ум в качестве опаснейшего оружия. После долгого садистского обучения девушка превращается в самого опасного Воробья за всю историю секретной службы. Теперь бывшая балерина должна примирить в себе человека, которым она была, и силу, которой она овладела, со своей собственной жизнью и жизнью всех, кто ей дорог. В том числе, американского агента ЦРУ, пытающегося убедить ее, что он единственный человек, которому она может доверять.-Качество: BDRip 720p
Контейнер: M4V
Видео: H.264, 1280x536, 2.40:1, 3 500 Kbps, 23.976 (24000/1001) fps
Аудио 1: Русский/Дублированный (Blu-ray EUR), AAC / 2.0 / 160 Kbps / 48.0 KHz
Аудио 2: Английский/Оригинальная дорожка , AAC / 2.0 / 160 Kbps / 48.0 KHz
Аудио 3: Украинский/Дублированный (Blu-ray EUR), AAC / 2.0 / 160 Kbps / 48.0 KHz
Аудио 4: Русский/Дублированный (Blu-ray EUR), AC-3 / 5.1 / 640 Kbps / 48.0 KHz
Аудио 5: Английский/Оригинальная дорожка , AC-3 / 5.1 / 640 Kbps / 48.0 KHz
Аудио 6: Украинский/Дублированный (Blu-ray EUR), AC-3 / 5.1 / 448 Kbps / 48.0 KHz-
iTunes Meta Tags
Код: выделить все
Sort Name: Red Sparrow
XID: Apple:vendor_id:2018-762500
contentID: 1348194401
Copyright: © 2018 Twentieth Century Fox Film Corporation. All rights reserved.
Screenwriters: Джастин Хэйс, Джейсон Мэттьюс
Producers: Питер Чернин, Дэвид Рэди, Дженно Топпинг
Director: Френсис Лоуренс
Cast: Дженнифер Лоуренс, Джоэл Эдгертон, Маттиас Шонартс, Шарлотта Рэмплинг, Мэри-Луиз Паркер, Киран Хайндс, Джоэли Ричардсон, Билл Кэмп, Джереми Айронс, Текла Рютен
Studio: 20th Century Fox
Rating: 5
Long Description: После вынужденного окончания карьеры из-за профессиональной травмы Доминика Егорова и ее мать сталкиваются с мрачным и неопределенным будущим. Героиня соглашается стать рекрутом в Школе Воробьев, секретной службе, которая обучает уникальных молодых людей использовать свое тело и ум в качестве опаснейшего оружия. После долгого садистского обучения девушка превращается в самого опасного Воробья за всю историю секретной службы. Теперь бывшая балерина должна примирить в себе человека, которым она была, и силу, которой она овладела, со своей собственной жизнью и жизнью всех, кто ей дорог. В том числе, американского агента ЦРУ, пытающегося убедить ее, что он единственный человек, которому она может доверять.
Description: После вынужденного окончания карьеры из-за профессиональной травмы Доминика Егорова и ее мать сталкиваются с мрачным и неопределенным будущим. Героиня соглашается стать рекрутом в Школе Воробьев, секретной службе, которая обучает уникальных молодых людей использовать свое тело и ум в качестве опаснейшего оружия. После долгого садистского обучения девушка превращается в самого опасного Воробья за всю историю секретной службы...
Release Date: 2018-02-19T08:00:00Z
Genre: Thriller
Artist: Francis Lawrence
Name: Red Sparrow
MediaInfo
Код: выделить все
General
Complete name                            : /Users/imac/HandBrake/Red Sparrow (720p HD).m4v
Format                                   : MPEG-4
Codec ID                                 : M4V  (M4V /M4A /mp42/isom)
File size                                : 5.59 GiB
Duration                                 : 2h 20mn
Overall bit rate mode                    : Variable
Overall bit rate                         : 5 709 Kbps
Movie name                               : Red Sparrow
Performer                                : Francis Lawrence
Director                                 : Френсис Лоуренс
Actor                                    : Дженнифер Лоуренс / Джоэл Эдгертон / Маттиас Шонартс / Шарлотта Рэмплинг / Мэри-Луиз Паркер / Киран Хайндс / Джоэли Ричардсон / Билл Кэмп / Джереми Айронс / Текла Рютен
Screenplay by                            : Джастин Хэйс / Джейсон Мэттьюс
Producer                                 : Питер Чернин / Дэвид Рэди / Дженно Топпинг
Production studio                        : 20th Century Fox
Genre                                    : Thriller
ContentType                              : Short Film
Description                              : После вынужденного окончания карьеры из-за профессиональной травмы Доминика Егорова и ее мать сталкиваются с мрачным и неопределенным будущим. Героиня соглашается стать рекрутом в Школе Воробьев, секретной службе, которая обучает уникальных молодых людей использовать свое тело и ум в качестве опаснейшего оружия. После долгого садистского обучения девушка превращается в самого опасного Воробья за всю историю секретной службы...
Recorded date                            : UTC 2018-02-19 08:00:00
Encoded date                             : UTC 2018-05-14 08:25:33
Tagged date                              : UTC 2018-05-14 08:30:08
Copyright                                : © 2018 Twentieth Century Fox Film Corporation. All rights reserved.
Cover                                    : Yes
Rating                                   : None
Title/Sort                               : Red Sparrow
LongDescription                          : После вынужденного окончания карьеры из-за профессиональной травмы Доминика Егорова и ее мать сталкиваются с мрачным и неопределенным будущим. Героиня соглашается стать рекрутом в Школе Воробьев, секретной службе, которая обучает уникальных молодых людей использовать свое тело и ум в качестве опаснейшего оружия. После долгого садистского обучения девушка превращается в самого опасного Воробья за всю историю секретной службы. Теперь бывшая балерина должна примирить в себе человека, которым она была, и силу, которой она овладела, со своей собственной жизнью и жизнью всех, кто ей дорог. В том числе, американского агента ЦРУ, пытающегося убедить ее, что он единственный человек, которому она может доверять.
HDVideo                                  : Yes
AppleStoreCatalogID                      : 1348194401
Vendor                                   : Apple:vendor_id:2018-762500
ContentRating                            : mpaa|R|400|
Video #1
ID                                       : 1
Format                                   : AVC
Format/Info                              : Advanced Video Codec
Format profile                           : High@L3.1
Format settings                          : 3 Ref Frames
Format settings, CABAC                   : No
Format settings, ReFrames                : 3 frames
Codec ID                                 : avc1
Codec ID/Info                            : Advanced Video Coding
Duration                                 : 2h 20mn
Source duration                          : 2h 20mn
Bit rate                                 : 3 500 Kbps
Width                                    : 1 280 pixels
Height                                   : 536 pixels
Display aspect ratio                     : 2.40:1
Frame rate mode                          : Variable
Frame rate                               : 23.976 (24000/1001) fps
Minimum frame rate                       : 23.974 fps
Maximum frame rate                       : 23.981 fps
Color space                              : YUV
Chroma subsampling                       : 4:2:0
Bit depth                                : 8 bits
Scan type                                : Progressive
Bits/(Pixel*Frame)                       : 0.213
Stream size                              : 3.42 GiB (61%)
Source stream size                       : 3.42 GiB (61%)
Title                                    : Main Program
Writing library                          : x264 core 155 r2893 b00bcaf
Encoding settings                        : cabac=0 / ref=3 / deblock=1:-3:-3 / analyse=0x3:0x113 / me=umh / subme=9 / psy=1 / psy_rd=1.00:0.15 / mixed_ref=1 / me_range=32 / chroma_me=1 / trellis=0 / 8x8dct=1 / cqm=0 / deadzone=21,11 / fast_pskip=0 / chroma_qp_offset=-2 / threads=17 / lookahead_threads=1 / sliced_threads=0 / nr=0 / decimate=0 / interlaced=0 / bluray_compat=0 / constrained_intra=0 / bframes=3 / b_pyramid=0 / b_adapt=2 / b_bias=0 / direct=1 / weightb=0 / open_gop=0 / weightp=0 / keyint=240 / keyint_min=24 / scenecut=40 / intra_refresh=0 / rc_lookahead=40 / rc=2pass / mbtree=1 / bitrate=3500 / ratetol=1.0 / qcomp=0.65 / qpmin=0 / qpmax=69 / qpstep=4 / cplxblur=20.0 / qblur=0.5 / vbv_maxrate=9500 / vbv_bufsize=9500 / nal_hrd=none / filler=0 / ip_ratio=1.40 / aq=1:1.10
Language                                 : English
Encoded date                             : UTC 2018-05-14 08:25:33
Tagged date                              : UTC 2018-05-14 08:25:44
Color range                              : Limited
Color primaries                          : BT.709
Transfer characteristics                 : BT.709
Matrix coefficients                      : BT.709
Menus                                    : 10,11
Video #2
ID                                       : 11
Format                                   : JPEG
Codec ID                                 : jpeg
Duration                                 : 2h 20mn
Bit rate mode                            : Variable
Bit rate                                 : 721 bps
Width                                    : 640 pixels
Height                                   : 268 pixels
Display aspect ratio                     : 2.40:1
Frame rate mode                          : Variable
Frame rate                               : 0.003 fps
Minimum frame rate                       : 0.002 fps
Maximum frame rate                       : 0.005 fps
Color space                              : YUV
Chroma subsampling                       : 4:2:0
Bit depth                                : 8 bits
Compression mode                         : Lossy
Bits/(Pixel*Frame)                       : 1.401
Stream size                              : 704 KiB (0%)
Title                                    : Chapter Images
Language                                 : English
Default                                  : No
Encoded date                             : UTC 2018-05-14 08:27:22
Tagged date                              : UTC 2018-05-14 08:27:22
Menu For                                 : 1
ColorSpace_ICC                           : RGB
Audio #1
ID                                       : 2
Format                                   : AAC
Format/Info                              : Advanced Audio Codec
Format profile                           : LC
Codec ID                                 : mp4a-40-2
Duration                                 : 2h 20mn
Source duration                          : 2h 20mn
Bit rate mode                            : Variable
Bit rate                                 : 158 Kbps
Maximum bit rate                         : 239 Kbps
Channel(s)                               : 2 channels
Channel positions                        : Front: L R
Sampling rate                            : 48.0 KHz
Frame rate                               : 46.875 fps (1024 SPF)
Compression mode                         : Lossy
Stream size                              : 159 MiB (3%)
Source stream size                       : 159 MiB (3%)
Title                                    : Russian Stereo
Language                                 : Russian
Default                                  : Yes
Alternate group                          : 1
Encoded date                             : UTC 2018-05-14 08:25:33
Tagged date                              : UTC 2018-05-14 08:27:16
Fallback From                            : 5
Audio #2
ID                                       : 3
Format                                   : AAC
Format/Info                              : Advanced Audio Codec
Format profile                           : LC
Codec ID                                 : mp4a-40-2
Duration                                 : 2h 20mn
Source duration                          : 2h 20mn
Bit rate mode                            : Variable
Bit rate                                 : 159 Kbps
Maximum bit rate                         : 239 Kbps
Channel(s)                               : 2 channels
Channel positions                        : Front: L R
Sampling rate                            : 48.0 KHz
Frame rate                               : 46.875 fps (1024 SPF)
Compression mode                         : Lossy
Stream size                              : 159 MiB (3%)
Source stream size                       : 159 MiB (3%)
Title                                    : English Stereo
Language                                 : English
Default                                  : No
Alternate group                          : 1
Encoded date                             : UTC 2018-05-14 08:25:33
Tagged date                              : UTC 2018-05-14 08:27:16
Fallback From                            : 6
Audio #3
ID                                       : 4
Format                                   : AAC
Format/Info                              : Advanced Audio Codec
Format profile                           : LC
Codec ID                                 : mp4a-40-2
Duration                                 : 2h 20mn
Source duration                          : 2h 20mn
Bit rate mode                            : Variable
Bit rate                                 : 158 Kbps
Maximum bit rate                         : 244 Kbps
Channel(s)                               : 2 channels
Channel positions                        : Front: L R
Sampling rate                            : 48.0 KHz
Frame rate                               : 46.875 fps (1024 SPF)
Compression mode                         : Lossy
Stream size                              : 159 MiB (3%)
Source stream size                       : 159 MiB (3%)
Title                                    : Ukrainian Stereo
Language                                 : Ukrainian
Default                                  : No
Alternate group                          : 1
Encoded date                             : UTC 2018-05-14 08:25:33
Tagged date                              : UTC 2018-05-14 08:27:16
Fallback From                            : 7
Audio #4
ID                                       : 5
Format                                   : AC-3
Format/Info                              : Audio Coding 3
Codec ID                                 : ac-3
Duration                                 : 2h 20mn
Bit rate mode                            : Constant
Bit rate                                 : 640 Kbps
Channel(s)                               : 6 channels
Channel positions                        : Front: L C R, Side: L R, LFE
Sampling rate                            : 48.0 KHz
Frame rate                               : 31.250 fps (1536 SPF)
Bit depth                                : 16 bits
Compression mode                         : Lossy
Stream size                              : 642 MiB (11%)
Title                                    : Russian DD 5.1
Language                                 : Russian
Service kind                             : Complete Main
Default                                  : Inherited From: 2
Alternate group                          : 1
Encoded date                             : UTC 2018-05-14 08:25:33
Tagged date                              : UTC 2018-05-14 08:27:16
Fallback To                              : 2
Audio #5
ID                                       : 6
Format                                   : AC-3
Format/Info                              : Audio Coding 3
Codec ID                                 : ac-3
Duration                                 : 2h 20mn
Bit rate mode                            : Constant
Bit rate                                 : 640 Kbps
Channel(s)                               : 6 channels
Channel positions                        : Front: L C R, Side: L R, LFE
Sampling rate                            : 48.0 KHz
Frame rate                               : 31.250 fps (1536 SPF)
Bit depth                                : 16 bits
Compression mode                         : Lossy
Stream size                              : 642 MiB (11%)
Title                                    : English DD 5.1
Language                                 : English
Service kind                             : Complete Main
Default                                  : No
Alternate group                          : 1
Encoded date                             : UTC 2018-05-14 08:25:33
Tagged date                              : UTC 2018-05-14 08:27:16
Fallback To                              : 3
Audio #6
ID                                       : 7
Format                                   : AC-3
Format/Info                              : Audio Coding 3
Codec ID                                 : ac-3
Duration                                 : 2h 20mn
Bit rate mode                            : Constant
Bit rate                                 : 448 Kbps
Channel(s)                               : 6 channels
Channel positions                        : Front: L C R, Side: L R, LFE
Sampling rate                            : 48.0 KHz
Frame rate                               : 31.250 fps (1536 SPF)
Bit depth                                : 16 bits
Compression mode                         : Lossy
Stream size                              : 449 MiB (8%)
Title                                    : Ukrainian DD 5.1
Language                                 : Ukrainian
Service kind                             : Complete Main
Default                                  : No
Alternate group                          : 1
Encoded date                             : UTC 2018-05-14 08:25:33
Tagged date                              : UTC 2018-05-14 08:27:16
Fallback To                              : 4
Text #1
ID                                       : 8
Format                                   : Timed Text
Muxing mode                              : sbtl
Codec ID                                 : tx3g
Duration                                 : 2h 20mn
Bit rate mode                            : Variable
Bit rate                                 : 66 bps
Stream size                              : 68.2 KiB (0%)
Title                                    : Russian full
Language                                 : Russian
Default                                  : Yes
Forced                                   : No
Alternate group                          : 2
Encoded date                             : UTC 2018-05-14 08:25:33
Tagged date                              : UTC 2018-05-14 08:27:12
Text #2
ID                                       : 9
Format                                   : Timed Text
Muxing mode                              : sbtl
Codec ID                                 : tx3g
Duration                                 : 2h 13mn
Bit rate mode                            : Variable
Bit rate                                 : 55 bps
Stream size                              : 53.4 KiB (0%)
Title                                    : English full
Language                                 : English
Default                                  : No
Forced                                   : No
Alternate group                          : 2
Encoded date                             : UTC 2018-05-14 08:25:33
Tagged date                              : UTC 2018-05-14 08:27:11
Menu #1
00:00:00.000                             : 00:00:00.000
00:08:00.105                             : 00:08:00.105
00:11:31.983                             : 00:11:31.983
00:16:57.183                             : 00:16:57.183
00:21:09.643                             : 00:21:09.643
00:27:21.265                             : 00:27:21.265
00:33:03.356                             : 00:33:03.356
00:38:09.245                             : 00:38:09.245
00:42:29.130                             : 00:42:29.130
00:46:41.799                             : 00:46:41.799
00:54:14.334                             : 00:54:14.334
00:58:45.480                             : 00:58:45.480
01:04:55.266                             : 01:04:55.266
01:10:26.264                             : 01:10:26.139
01:16:28.250                             : 01:16:28.250
01:26:44.700                             : 01:26:44.699
01:32:06.938                             : 01:32:06.938
01:36:22.443                             : 01:36:22.443
01:41:53.149                             : 01:41:53.149
01:49:48.415                             : 01:49:48.415
01:53:45.610                             : 01:53:45.610
01:58:52.083                             : 01:58:52.083
02:07:20.133                             : 02:07:20.132
02:13:40.095                             : 02:13:40.095
Menu #2
ID                                       : 10
Codec ID                                 : text
Duration                                 : 2h 20mn
Language                                 : English
Encoded date                             : UTC 2018-05-14 08:27:16
Tagged date                              : UTC 2018-05-14 08:27:16
Bit rate mode                            : CBR
Menu For                                 : 1
00:00:00.000                             : 00:00:00.000
00:08:00.105                             : 00:08:00.105
00:11:31.983                             : 00:11:31.983
00:16:57.183                             : 00:16:57.183
00:21:09.643                             : 00:21:09.643
00:27:21.265                             : 00:27:21.265
00:33:03.356                             : 00:33:03.356
00:38:09.245                             : 00:38:09.245
00:42:29.130                             : 00:42:29.130
00:46:41.799                             : 00:46:41.799
00:54:14.334                             : 00:54:14.334
00:58:45.480                             : 00:58:45.480
01:04:55.266                             : 01:04:55.266
01:10:26.264                             : 01:10:26.139
01:16:28.250                             : 01:16:28.250
01:26:44.700                             : 01:26:44.699
01:32:06.938                             : 01:32:06.938
01:36:22.443                             : 01:36:22.443
01:41:53.149                             : 01:41:53.149
01:49:48.415                             : 01:49:48.415
01:53:45.610                             : 01:53:45.610
01:58:52.083                             : 01:58:52.083
02:07:20.133                             : 02:07:20.132
02:13:40.095                             : 02:13:40.095
x264 лог
Код: выделить все
x264 [info]: frame I:1877  Avg QP:12.05  size:125552
x264 [info]: frame P:64903 Avg QP:14.41  size: 35428
x264 [info]: frame B:134936 Avg QP:15.05  size:  8442
x264 [info]: consecutive B-frames:  2.4% 14.0% 33.3% 50.2%
x264 [info]: mb I  I16..4:  7.4% 64.4% 28.2%
x264 [info]: mb P  I16..4:  0.5%  4.4%  1.6%  P16..4: 40.8% 33.7% 14.1%  0.0%  0.0%    skip: 5.0%
x264 [info]: mb B  I16..4:  0.0%  0.4%  0.1%  B16..8: 43.3% 16.8%  2.5%  direct: 3.2%  skip:33.5%  L0:42.6% L1:50.2% BI: 7.2%
x264 [info]: 8x8 transform intra:67.3% inter:39.2%
x264 [info]: coded y,uvDC,uvAC intra: 94.3% 81.7% 65.5% inter: 26.7% 20.3% 12.3%
x264 [info]: i16 v,h,dc,p: 30%  9%  8% 53%
x264 [info]: i8 v,h,dc,ddl,ddr,vr,hd,vl,hu: 16%  8%  8% 10% 13% 13% 12% 11% 10%
x264 [info]: i4 v,h,dc,ddl,ddr,vr,hd,vl,hu: 15%  8%  3% 11% 15% 15% 12% 11%  9%
x264 [info]: i8c dc,h,v,p: 51% 17% 23%  9%
x264 [info]: ref P L0: 69.5% 18.1% 12.4%
x264 [info]: ref B L0: 76.0% 24.0%
x264 [info]: kb/s:3493.66
Скриншоты: Все одноименные релизы в Клубе-

Релиз подготовлен для просмотра на Apple TV, iPad, iPhone, iPod Touch.
Для просмотра данного релиза на компьютере с ОС Windows рекомендуется использовать VLC media player
[Профиль] [ЛС]
Показать сообщения:    
Ответить на тему

Текущее время: 19-Июн 04:00

Часовой пояс: UTC + 3



Вы не можете начинать темы
Вы не можете отвечать на сообщения
Вы не можете редактировать свои сообщения
Вы не можете удалять свои сообщения
Вы не можете голосовать в опросах
Вы не можете прикреплять файлы к сообщениям
Вы не можете скачивать файлы