Сегодня идет свободное скачивание без начисления Download

Stand Up. Пятилетие (2018.05.13) HDTV [H.264/1080i-LQ] (выпуск 1)

Ответить на тему
 
Автор Сообщение

Bot ®

Стаж: 2 года 2 месяца

Сообщений: 14

Создавать темы 13-Июн-2018 18:18

[Цитировать]

Stand Up. Пятилетие (2018.05.13) HDTV [H.264/1080i-LQ] (выпуск 1)- Телекомпания:
Жанр: Юмор
Ведущий: Руслан Белый
Описание: Большой концерт самых популярных комиков шоу Stand Up, посвященный первому серьезному юбилею. Абсолютно новые монологи на сцене гигантского "Крокус Сити Холл", в присутствии нескольких тысяч зрителей.
Продолжительность: 00:47:54
Качество видео: HDTV
Субтитры: Отсутствуют
Видео: AVC/H.264, 1920x1080 (16:9), 25.000 fps, 5954 kbps
Аудио: AAC, 2 ch, 132 Kbps
Mediainfo:
Полное имя                               : H:\Stand.up.Пятилетие.(2018.05.13)_1080.mkv
Формат : Matroska
Версия формата : Version 4 / Version 2
Размер файла : 2,04 Гбайт
Продолжительность : 47 м. 54 с.
Общий поток : 6090 Кбит/сек
Дата кодирования : UTC 2018-05-14 09:27:13
Программа кодирования : mkvmerge v21.0.0 ('Tardigrades Will Inherit The Earth') 64-bit
Библиотека кодирования : libebml v1.3.5 + libmatroska v1.4.8
Видео
Идентификатор : 1
Формат : AVC
Формат/Информация : Advanced Video Codec
Профиль формата : High@L4.1
Настройки формата : 2 Ref Frames
Параметр CABAC формата : Нет
Параметр RefFrames формата : 2 кадра
Идентификатор кодека : V_MPEG4/ISO/AVC
Продолжительность : 47 м. 54 с.
Битрейт : 5954 Кбит/сек
Ширина : 1920 пикселей
Высота : 1080 пикселей
Соотношение сторон : 16:9
Режим частоты кадров : Постоянный
Частота кадров : 25,000 кадров/сек
Цветовое пространство : YUV
Субдискретизация насыщенности : 4:2:0
Битовая глубина : 8 бит
Тип развёртки : Прогрессивная
Бит/(Пиксели*Кадры) : 0.115
Размер потока : 1,99 Гбайт (98%)
Default : Да
Forced : Нет
Аудио
Идентификатор : 2
Формат : AAC
Формат/Информация : Advanced Audio Codec
Профиль формата : LC
Идентификатор кодека : A_AAC-2
Продолжительность : 47 м. 54 с.
Битрейт : 132 Кбит/сек
Каналы : 2 канала
Расположение каналов : Front: L R
Частота : 48,0 КГц
Частота кадров : 46,875 кадров/сек (1024 SPF)
Метод сжатия : С потерями
Размер потока : 45,7 Мбайт (2%)
Default : Да
Forced : Нет
Скриншоты:
Все одноименные релизы в КлубеВремя раздачи: 24/7 (круглосуточно) (до появления первых 3-5 скачавших)
[Профиль] [ЛС]
Показать сообщения:    
Ответить на тему

Текущее время: 19-Июн 03:59

Часовой пояс: UTC + 3



Вы не можете начинать темы
Вы не можете отвечать на сообщения
Вы не можете редактировать свои сообщения
Вы не можете удалять свои сообщения
Вы не можете голосовать в опросах
Вы не можете прикреплять файлы к сообщениям
Вы не можете скачивать файлы