Сегодня идет свободное скачивание без начисления Download

Stand Up. Пятилетие (2018) HDTVRip [H.264/720p-LQ] (выпуски 1-2 из 2)

Ответить на тему
 
Автор Сообщение

Bot ®

Стаж: 1 год 5 месяцев

Сообщений: 8

Создавать темы 13-Июн-2018 18:18

[Цитировать]

Stand Up. Пятилетие (2018) HDTVRip [H.264/720p-LQ] - Телекомпания: ТНТ
Жанр: Юмористическое шоу
Ведущий: Руслан Белый
Описание:
Большой концерт самых популярных комиков шоу Stand Up, посвященный первому серьезному юбилею. Абсолютно новые монологи на сцене гигантского "Крокус Сити Холл", в присутствии нескольких тысяч зрителей.
Релиз от: Алехаndr
Продолжительность: ~00:48:00 выпуск
Качество видео: HDTVRip
Субтитры: Отсутствуют
Видео: AVC/H.264, 1280x720 (16:9), ~3350 Kbps
Аудио: AC3, 2 ch, 192 Kbps
Mediainfo:
Общее
Уникальный идентификатор : 6408065071798429577064572881154992912 (0x4D226003649E2E0F86F009E4BE1EB10)
Полное имя : D:\Stand Up. Пятилетие (2018).by.Алехаndr\Выпуск 1.by.Алехаndr.mkv
Формат : Matroska
Версия формата : Version 4 / Version 2
Размер файла : 1,21 Гбайт
Продолжительность : 47 м. 54 с.
Общий поток : 3613 Кбит/сек
Программа кодирования : Lavf57.71.100
Библиотека кодирования : Lavf57.71.100
ErrorDetectionType : Per level 1
Видео
Идентификатор : 1
Формат : AVC
Формат/Информация : Advanced Video Codec
Профиль формата : Main@L3.1
Настройки формата : CABAC / 1 Ref Frames
Параметр CABAC формата : Да
Параметр RefFrames формата : 1 кадр
Идентификатор кодека : V_MPEG4/ISO/AVC
Продолжительность : 47 м. 54 с.
Битрейт : 3349 Кбит/сек
Ширина : 1280 пикселей
Высота : 720 пикселей
Соотношение сторон : 16:9
Режим частоты кадров : Постоянный
Частота кадров : 25,000 кадров/сек
Цветовое пространство : YUV
Субдискретизация насыщенности : 4:2:0
Битовая глубина : 8 бит
Тип развёртки : Прогрессивная
Бит/(Пиксели*Кадры) : 0.145
Размер потока : 1,12 Гбайт (93%)
Default : Да
Forced : Нет
Аудио
Идентификатор : 2
Формат : AC-3
Формат/Информация : Audio Coding 3
Идентификатор кодека : A_AC3
Продолжительность : 47 м. 54 с.
Вид битрейта : Постоянный
Битрейт : 192 Кбит/сек
Каналы : 2 канала
Расположение каналов : Front: L R
Частота : 48,0 КГц
Частота кадров : 31,250 кадров/сек (1536 SPF)
Битовая глубина : 16 бит
Метод сжатия : С потерями
Размер потока : 65,8 Мбайт (5%)
ServiceKind/String : Complete Main
Default : Да
Forced : Нет
Скриншоты:
Все одноименные релизы в КлубеВремя раздачи: 24/7 (круглосуточно) (до появления первых 3-5 скачавших)
[Профиль] [ЛС]
Показать сообщения:    
Ответить на тему

Текущее время: 16-Авг 07:16

Часовой пояс: UTC + 3



Вы не можете начинать темы
Вы не можете отвечать на сообщения
Вы не можете редактировать свои сообщения
Вы не можете удалять свои сообщения
Вы не можете голосовать в опросах
Вы не можете прикреплять файлы к сообщениям
Вы не можете скачивать файлы