Сегодня идет свободное скачивание без начисления Download

Специалист | 1С:Предприятие 8.3. Первые шаги разработчика (2014) PCRec

Ответить на тему
 
Автор Сообщение

Bot ®

Стаж: 2 года 11 месяцев

Сообщений: 8

Создавать темы 08-Июл-2018 18:00

[Цитировать]

Специалист | 1С:Предприятие 8.3. Первые шаги разработчика (2014) PCRec- Автор (режиссер): Специалист
Жанр:
Продолжительность: 08:30:01
Качество видео: PCRec
Видеокодек: AVC
Битрейт видео: ~924 Кбит/сек
Размер кадра: 1920х1080
Аудиокодек: AAC 2.0
Битрейт аудио: 128 Кбит/сек, 2 канала, 44,1 КГц
Описание:
Курс «1С:Предприятие 8.3. Первые шаги разработчика [с]» построен по новой версии популярной программы 1С:Предприятие 8.3
Курс рассчитан как на будущих разработчиков, так и на конечных пользователей, желающих более полно овладеть возможностями системы «1С:Предприятие». Данный курс будет полезен тем, кто собирается переходить к версии 8.3 с предыдущих версий платформы «1С:Предприятие 8».
Цель курса - дать слушателям самое начальное представление о работе с объектами и механизмами платформы, сформировать у них первичные практические навыки по конфигурированию и программированию
MediaInfo
Общее
Полное имя : C:\Users\Dobl\Desktop\[Специалист] 1С Предприятие 8.3. Первые шаги разработчика\1.1.mp4
Формат : MPEG-4
Профиль формата : Base Media
Идентификатор кодека : isom
Размер файла : 1,93 Гбайт
Продолжительность : 4 ч. 21 м.
Общий поток : 1058 Кбит/сек
Программа кодирования : Lavf55.19.104
Видео
Идентификатор : 1
Формат : AVC
Формат/Информация : Advanced Video Codec
Профиль формата : Baseline@L1.3
Параметр CABAC формата : Нет
Параметр ReFrames формата : 2 кадра
Идентификатор кодека : avc1
Идентификатор кодека/Информация : Advanced Video Coding
Продолжительность : 4 ч. 21 м.
Битрейт : 924 Кбит/сек
Номинальный битрейт : 4000 Кбит/сек
Ширина : 1920 пикселей
Высота : 1080 пикселей
Соотношение сторон : 4:3
Режим частоты кадров : Постоянный
Частота кадров : 25,000 кадров/сек
Цветовое пространство : YUV
Субдискретизация насыщенности : 4:2:0
Битовая глубина : 8 бит
Тип развёртки : Прогрессивная
Бит/(Пиксели*Кадры) : 0.018
Размер потока : 1,69 Гбайт (87%)
Библиотека кодирования : x264 core 140 r2377 1ca7bb9
Настройки программы : opencl=1 / cabac=0 / ref=2 / deblock=1:0:0 / analyse=0x1:0x111 / me=umh / subme=6 / psy=1 / psy_rd=1.00:0.00 / mixed_ref=1 / me_range=16 / chroma_me=1 / trellis=0 / 8x8dct=0 / cqm=0 / deadzone=21,11 / fast_pskip=1 / chroma_qp_offset=-2 / threads=2 / lookahead_threads=1 / sliced_threads=0 / nr=0 / decimate=1 / interlaced=0 / bluray_compat=0 / constrained_intra=0 / bframes=0 / weightp=0 / keyint=250 / keyint_min=25 / scenecut=40 / intra_refresh=0 / rc_lookahead=40 / rc=abr / mbtree=1 / bitrate=4000 / ratetol=1.0 / qcomp=0.60 / qpmin=0 / qpmax=69 / qpstep=4 / ip_ratio=1.40 / aq=1:1.00
Аудио
Идентификатор : 2
Формат : AAC
Формат/Информация : Advanced Audio Codec
Профиль формата : LC
Идентификатор кодека : 40
Продолжительность : 4 ч. 21 м.
Вид битрейта : Постоянный
Битрейт : 128 Кбит/сек
Каналы : 2 канала
Расположение каналов : Front: L R
Частота : 44,1 КГц
Метод сжатия : С потерями
Размер потока : 239 Мбайт (12%)
Скриншоты:
Время раздачи: 24/7 (круглосуточно)
[Профиль] [ЛС]
Показать сообщения:    
Ответить на тему

Текущее время: 22-Июл 23:44

Часовой пояс: UTC + 3



Вы не можете начинать темы
Вы не можете отвечать на сообщения
Вы не можете редактировать свои сообщения
Вы не можете удалять свои сообщения
Вы не можете голосовать в опросах
Вы не можете прикреплять файлы к сообщениям
Вы не можете скачивать файлы