Сегодня идет свободное скачивание без начисления Download

(Soundtrack) Комиссар Рекс / Kommissar Rex: Vol. 1 (by Various Artists) - 1994, FLAC (tracks+.cue), lossless

Ответить на тему
 
Автор Сообщение

Bot ®

Стаж: 1 год 7 месяцев

Сообщений: 166

Создавать темы 09-Июл-2018 09:50

[Цитировать]

Комиссар Рекс / Kommissar Rex: Vol. 1
Название альбома: Kommissar Rex
Жанр: Soundtrack
Композитор: Various Artists
Год выпуска диска: 1994
Год выпуска фильма: 1994
Производитель диска: NL
Издатель (лейбл): Intercord
Номер по каталогу: INT 860.272
Аудиокодек: FLAC
Тип рипа: tracks+.cue
Битрейт аудио: lossless
Продолжительность: 01:00:57
Источник: Спасибо, Filex
Наличие сканов в содержимом раздачи: да
Треклист:
01. Kathy Sampson - A Good Friend (3:12)
02. Erasure - Always (7" Mix) (4:00)
03. Aswad - Shine (Beatmasters 7" Mix) (3:40)
04. Bitty McLean - Here I Stand (3:41)
05. Ruby Turner - Stay With Me Baby (3:35)
06. Yazoo - Ode To Boy (3:38)
07. Depeche Mode - Waiting for the Night (6:08)
08. Memphis Blue - One Single Word (4:03)
09. Right Said Fred - Wonderman (7" Version) (3:27)
10. Captain Hollywood\ Project - More and More (Single Version) (4:12)
11. Björn Again - Flashdance ... What a Feeling (7") (3:47)
12. Bad Boys Blue - What Else? (Radio Edit) (3:15)
13. Pur - Indianer (3:59)
14. Pe Werner - Lebenslänglich (4:09)
15. Attack - Rexthema (3:51)
16. Attack - Mordwalzer (2:20)
Лог создания рипа:
Exact Audio Copy V1.3 from 2. September 2016
EAC extraction logfile from 5. July 2018, 20:16
Various Artists / Kommissar Rex
Used drive : PLEXTOR CD-R PX-230A Adapter: 1 ID: 0
Read mode : Secure
Utilize accurate stream : Yes
Defeat audio cache : Yes
Make use of C2 pointers : No
Read offset correction : 738
Overread into Lead-In and Lead-Out : No
Fill up missing offset samples with silence : Yes
Delete leading and trailing silent blocks : No
Null samples used in CRC calculations : Yes
Used interface : Native Win32 interface for Win NT & 2000
Gap handling : Appended to previous track
Used output format : User Defined Encoder
Selected bitrate : 1024 kBit/s
Quality : High
Add ID3 tag : No
Command line compressor : C:\Program Files\Exact Audio Copy\Flac\flac.exe
Additional command line options : -6 -V -T "ARTIST=%artist%" -T "TITLE=%title%" -T "ALBUM=%albumtitle%" -T "DATE=%year%" -T "TRACKNUMBER=%tracknr%" -T "GENRE=%genre%" -T "COMMENT=%comment%" -T "ALBUMARTIST=%albuminterpret%" -T "COMPOSER=%composer%" -T "DISCNUMBER=%cdnumber%" -T "TOTALDISCS=%totalcds%" -T "TOTALTRACKS=%numtracks%" %source% -o %dest%
TOC of the extracted CD
Track | Start | Length | Start sector | End sector
---------------------------------------------------------
1 | 0:00.00 | 3:12.32 | 0 | 14431
2 | 3:12.32 | 4:00.20 | 14432 | 32451
3 | 7:12.52 | 3:40.00 | 32452 | 48951
4 | 10:52.52 | 3:40.65 | 48952 | 65516
5 | 14:33.42 | 3:35.33 | 65517 | 81674
6 | 18:09.00 | 3:38.12 | 81675 | 98036
7 | 21:47.12 | 6:07.70 | 98037 | 125631
8 | 27:55.07 | 4:02.73 | 125632 | 143854
9 | 31:58.05 | 3:27.07 | 143855 | 159386
10 | 35:25.12 | 4:12.25 | 159387 | 178311
11 | 39:37.37 | 3:46.40 | 178312 | 195301
12 | 43:24.02 | 3:15.18 | 195302 | 209944
13 | 46:39.20 | 3:59.12 | 209945 | 227881
14 | 50:38.32 | 4:09.25 | 227882 | 246581
15 | 54:47.57 | 3:51.30 | 246582 | 263936
16 | 58:39.12 | 2:19.45 | 263937 | 274406
Track 1
Filename C:\Ripped by Filex\01 - Kathy Sampson - A Good Friend.wav
Pre-gap length 0:00:02.00
Peak level 98.2 %
Extraction speed 4.3 X
Track quality 100.0 %
Test CRC 23493BE1
Copy CRC 23493BE1
Accurately ripped (confidence 3) [EDD06026] (AR v2)
Copy OK
Track 2
Filename C:\Ripped by Filex\02 - Erasure - Always (7'' Mix).wav
Pre-gap length 0:00:01.05
Peak level 98.1 %
Extraction speed 5.3 X
Track quality 100.0 %
Test CRC 5C9C2C14
Copy CRC 5C9C2C14
Accurately ripped (confidence 2) [F9728A2F] (AR v2)
Copy OK
Track 3
Filename C:\Ripped by Filex\03 - Aswad - Shine (Beatmasters 7'' Mix).wav
Pre-gap length 0:00:00.67
Peak level 98.4 %
Extraction speed 4.9 X
Track quality 100.0 %
Test CRC CB9EAAAD
Copy CRC CB9EAAAD
Accurately ripped (confidence 2) [54AC6AFB] (AR v2)
Copy OK
Track 4
Filename C:\Ripped by Filex\04 - Bitty McLean - Here I Stand.wav
Pre-gap length 0:00:01.52
Peak level 98.0 %
Extraction speed 4.6 X
Track quality 100.0 %
Test CRC 82E08000
Copy CRC 82E08000
Accurately ripped (confidence 2) [88C41B7D] (AR v2)
Copy OK
Track 5
Filename C:\Ripped by Filex\05 - Ruby Turner - Stay With Me Baby.wav
Pre-gap length 0:00:00.67
Peak level 98.0 %
Extraction speed 4.5 X
Track quality 99.9 %
Test CRC CD98BCDD
Copy CRC CD98BCDD
Accurately ripped (confidence 2) [35C31673] (AR v2)
Copy OK
Track 6
Filename C:\Ripped by Filex\06 - Yazoo - Ode To Boy.wav
Pre-gap length 0:00:01.18
Peak level 59.8 %
Extraction speed 5.1 X
Track quality 100.0 %
Test CRC 32A02D46
Copy CRC 32A02D46
Accurately ripped (confidence 2) [D435E743] (AR v2)
Copy OK
Track 7
Filename C:\Ripped by Filex\07 - Depeche Mode - Waiting for the Night.wav
Pre-gap length 0:00:00.22
Peak level 79.6 %
Extraction speed 5.5 X
Track quality 100.0 %
Test CRC 68636EF4
Copy CRC 68636EF4
Accurately ripped (confidence 2) [108B605D] (AR v2)
Copy OK
Track 8
Filename C:\Ripped by Filex\08 - Memphis Blue - One Single Word.wav
Pre-gap length 0:00:01.27
Peak level 88.9 %
Extraction speed 5.0 X
Track quality 100.0 %
Test CRC 6249E00E
Copy CRC 6249E00E
Accurately ripped (confidence 2) [17016437] (AR v2)
Copy OK
Track 9
Filename C:\Ripped by Filex\09 - Right Said Fred - Wonderman (7'' Version).wav
Pre-gap length 0:00:01.18
Peak level 85.0 %
Extraction speed 5.1 X
Track quality 100.0 %
Test CRC D4D17012
Copy CRC D4D17012
Accurately ripped (confidence 2) [E9930BA6] (AR v2)
Copy OK
Track 10
Filename C:\Ripped by Filex\10 - Captain Hollywood Project - More and More (Single Version).wav
Pre-gap length 0:00:01.15
Peak level 95.5 %
Extraction speed 4.7 X
Track quality 99.9 %
Test CRC 546ACBC0
Copy CRC 546ACBC0
Accurately ripped (confidence 2) [B34F479D] (AR v2)
Copy OK
Track 11
Filename C:\Ripped by Filex\11 - Bjoern Again - Flashdance ... What a Feeling (7'').wav
Pre-gap length 0:00:01.10
Peak level 98.0 %
Extraction speed 4.5 X
Track quality 100.0 %
Test CRC 73422776
Copy CRC 73422776
Accurately ripped (confidence 2) [CFE05FD7] (AR v2)
Copy OK
Track 12
Filename C:\Ripped by Filex\12 - Bad Boys Blue - What Else (Radio Edit).wav
Pre-gap length 0:00:01.15
Peak level 99.9 %
Extraction speed 5.0 X
Track quality 100.0 %
Test CRC 2235C681
Copy CRC 2235C681
Accurately ripped (confidence 2) [E77911F7] (AR v2)
Copy OK
Track 13
Filename C:\Ripped by Filex\13 - Pur - Indianer.wav
Pre-gap length 0:00:02.05
Peak level 89.1 %
Extraction speed 4.9 X
Track quality 100.0 %
Test CRC 8BA82379
Copy CRC 8BA82379
Accurately ripped (confidence 2) [E6B63263] (AR v2)
Copy OK
Track 14
Filename C:\Ripped by Filex\14 - Pe Werner - Lebenslaenglich.wav
Pre-gap length 0:00:01.72
Peak level 98.0 %
Extraction speed 4.5 X
Track quality 99.9 %
Test CRC E184D430
Copy CRC E184D430
Accurately ripped (confidence 2) [29351712] (AR v2)
Copy OK
Track 15
Filename C:\Ripped by Filex\15 - Attack - Rexthema.wav
Pre-gap length 0:00:01.42
Peak level 98.0 %
Extraction speed 3.6 X
Track quality 99.9 %
Test CRC E4B53582
Copy CRC E4B53582
Accurately ripped (confidence 2) [50021D5D] (AR v2)
Copy OK
Track 16
Filename C:\Ripped by Filex\16 - Attack - Mordwalzer.wav
Pre-gap length 0:00:01.25
Peak level 98.0 %
Extraction speed 3.9 X
Track quality 100.0 %
Test CRC E29EFC62
Copy CRC E29EFC62
Accurately ripped (confidence 2) [787343BE] (AR v2)
Copy OK
All tracks accurately ripped
No errors occurred
End of status report
---- CUETools DB Plugin V2.1.6
[CTDB TOCID: l6eWeg0yborb0jVdyuGgIP7i0gI-] found
Submit result: l6eWeg0yborb0jVdyuGgIP7i0gI- has been confirmed
Track | CTDB Status
1 | (15/15) Accurately ripped
2 | (15/15) Accurately ripped
3 | (15/15) Accurately ripped
4 | (15/15) Accurately ripped
5 | (15/15) Accurately ripped
6 | (15/15) Accurately ripped
7 | (15/15) Accurately ripped
8 | (15/15) Accurately ripped
9 | (15/15) Accurately ripped
10 | (15/15) Accurately ripped
11 | (15/15) Accurately ripped
12 | (15/15) Accurately ripped
13 | (15/15) Accurately ripped
14 | (15/15) Accurately ripped
15 | (15/15) Accurately ripped
16 | (15/15) Accurately ripped
==== Log checksum 887A5B7660B9903CC5D82541EEA647D54399D6B0D12D6646296C91C8B603D230 ====
LOG (.CUE):
REM GENRE Soundtrack
REM DATE 1994
REM DISCID D90E4A10
REM COMMENT "ExactAudioCopy v1.3"
PERFORMER "Various Artists"
TITLE "Kommissar Rex"
FILE "01 - Kathy Sampson - A Good Friend.wav" WAVE
TRACK 01 AUDIO
TITLE "A Good Friend"
PERFORMER "Kathy Sampson"
INDEX 01 00:00:00
TRACK 02 AUDIO
TITLE "Always (7'' Mix)"
PERFORMER "Erasure"
INDEX 00 03:11:27
FILE "02 - Erasure - Always.wav" WAVE
INDEX 01 00:00:00
TRACK 03 AUDIO
TITLE "Shine (Beatmasters 7'' Mix)"
PERFORMER "Aswad"
INDEX 00 03:59:28
FILE "03 - Aswad - Shine.wav" WAVE
INDEX 01 00:00:00
TRACK 04 AUDIO
TITLE "Here I Stand"
PERFORMER "Bitty McLean"
INDEX 00 03:38:23
FILE "04 - Bitty McLean - Here I Stand.wav" WAVE
INDEX 01 00:00:00
TRACK 05 AUDIO
TITLE "Stay With Me Baby"
PERFORMER "Ruby Turner"
INDEX 00 03:39:73
FILE "05 - Ruby Turner - Stay With Me Baby.wav" WAVE
INDEX 01 00:00:00
TRACK 06 AUDIO
TITLE "Ode To Boy"
PERFORMER "Yazoo"
INDEX 00 03:34:15
FILE "06 - Yazoo - Ode To Boy.wav" WAVE
INDEX 01 00:00:00
TRACK 07 AUDIO
TITLE "Waiting for the Night"
PERFORMER "Depeche Mode"
INDEX 00 03:37:65
FILE "07 - Depeche Mode - Waiting for the Night.wav" WAVE
INDEX 01 00:00:00
TRACK 08 AUDIO
TITLE "One Single Word"
PERFORMER "Memphis Blue"
INDEX 00 06:06:43
FILE "08 - Memphis Blue - One Single Word.wav" WAVE
INDEX 01 00:00:00
TRACK 09 AUDIO
TITLE "Wonderman (7'' Version)"
PERFORMER "Right Said Fred"
INDEX 00 04:01:55
FILE "09 - Right Said Fred - Wonderman.wav" WAVE
INDEX 01 00:00:00
TRACK 10 AUDIO
TITLE "More and More (Single Version)"
PERFORMER "Captain Hollywood Project"
INDEX 00 03:25:67
FILE "10 - Captain Hollywood Project - More and More.wav" WAVE
INDEX 01 00:00:00
TRACK 11 AUDIO
TITLE "Flashdance ... What a Feeling (7'')"
PERFORMER "Bjцrn Again"
INDEX 00 04:11:15
FILE "11 - Bjoern Again - Flashdance ... What a Feeling.wav" WAVE
INDEX 01 00:00:00
TRACK 12 AUDIO
TITLE "What Else? (Radio Edit)"
PERFORMER "Bad Boys Blue"
INDEX 00 03:45:25
FILE "12 - Bad Boys Blue - What Else.wav" WAVE
INDEX 01 00:00:00
TRACK 13 AUDIO
TITLE "Indianer"
PERFORMER "Pur"
INDEX 00 03:13:13
FILE "13 - Pur - Indianer.wav" WAVE
INDEX 01 00:00:00
TRACK 14 AUDIO
TITLE "Lebenslдnglich"
PERFORMER "Pe Werner"
INDEX 00 03:57:15
FILE "14 - Pe Werner - Lebenslaenglich.wav" WAVE
INDEX 01 00:00:00
TRACK 15 AUDIO
TITLE "Rexthema"
PERFORMER "Attack"
INDEX 00 04:07:58
FILE "15 - Attack - Rexthema.wav" WAVE
INDEX 01 00:00:00
TRACK 16 AUDIO
TITLE "Mordwalzer"
PERFORMER "Attack"
INDEX 00 03:50:05
FILE "16 - Attack - Mordwalzer.wav" WAVE
INDEX 01 00:00:00
-(Soundtrack) Комиссар Рекс / Kommissar Rex: Vol. 2 (by Various Artists) - 1995 (1994), FLAC (tracks+.cue), lossless
(Soundtrack) Комиссар Рекс / Kommissar Rex: Vol. 3 (by Various Artists) - 1996 (1994), FLAC (tracks+.cue), lossless
(Soundtrack) Комиссар Рекс / Kommissar Rex: Vol. 4 (by Various Artists) - 1997 (1994), FLAC (tracks+.cue), lossless
(Soundtrack) Комиссар Рекс / Kommissar Rex (Vol.1 & Vol.2) - 1994, 1995, MP3 (tracks), 320 kbps
(Soundtrack) Комиссар Рекс / Kommissar Rex (Vol.3 & Vol.4) - 1996, 1997, MP3 (tracks), 320 kbps- -
[Профиль] [ЛС]
Показать сообщения:    
Ответить на тему

Текущее время: 22-Июл 23:43

Часовой пояс: UTC + 3



Вы не можете начинать темы
Вы не можете отвечать на сообщения
Вы не можете редактировать свои сообщения
Вы не можете удалять свои сообщения
Вы не можете голосовать в опросах
Вы не можете прикреплять файлы к сообщениям
Вы не можете скачивать файлы