Сегодня идет свободное скачивание без начисления Download

(Soundtrack) Комиссар Рекс / Kommissar Rex: Vol. 2 (by Various Artists) - 1995 (1994), FLAC (tracks+.cue), lossless

Ответить на тему
 
Автор Сообщение

Bot ®

Стаж: 1 год 7 месяцев

Сообщений: 166

Создавать темы 09-Июл-2018 09:53

[Цитировать]

Комиссар Рекс / Kommissar Rex: Vol. 2
Название альбома: Kommissar Rex: Vol. 2
Жанр: Soundtrack
Композитор: Various Artists
Год выпуска диска: 1995
Год выпуска фильма: 1994
Производитель диска: NL
Издатель (лейбл): Intercord
Номер по каталогу: INT 860.285
Аудиокодек: FLAC
Тип рипа: tracks+.cue
Битрейт аудио: lossless
Продолжительность: 01:06:18
Источник: Спасибо, Filex
Наличие сканов в содержимом раздачи: да
Треклист:
01. Kathy Sampson - A Good Friend (3:14)
02. Pur - Abenteuerland (Single Version) (4:45)
03. Nice Little Penguins - Flying (2:33)
04. Bed & Breakfast - You Made Me Believe in Magic (Radio Edit) (3:37)
05. Worlds Apart - Could It Be I'm Falling in Love (3:46)
06. PJ & Duncan - Stuck On U (100% Radio Mix) (3:19)
07. Aswad - You're No Good (7" Beatmaster Mix) (3:16)
08. Grooveminister - Verdient (Normale Version) (3:52)
09. Schwester S. - Ja klar (1822 Radio Edit) (3:09)
10. Erasure - Stay With Me (4:45)
11. The Connells - '74-'75 (Album Version) (4:39)
12. The Kelly Family - Roses of Red (Single-Remix) (3:45)
13. Bad Boys Blue - Hold You in My Arms (Radio Edit) (3:57)
14. Captain Hollywood Project - The Way Love Is (Ragga Single Mix) (4:00)
15. D.J. Bobo - Freedom (Radio Version) (3:57)
16. Smokie - Who The F... Is Alice (3:38)
17. Todd Taylor and The Tragic Rogues - Lake Hollywood (4:22)
18. Rex und seine Freunde - Jingle Bells (1:44)
Лог создания рипа:
Exact Audio Copy V1.3 from 2. September 2016
EAC extraction logfile from 27. June 2018, 14:25
Various Artists / Kommissar Rex Vol..2
Used drive : PLEXTOR CD-R PX-230A Adapter: 1 ID: 0
Read mode : Secure
Utilize accurate stream : Yes
Defeat audio cache : Yes
Make use of C2 pointers : No
Read offset correction : 738
Overread into Lead-In and Lead-Out : No
Fill up missing offset samples with silence : Yes
Delete leading and trailing silent blocks : No
Null samples used in CRC calculations : Yes
Used interface : Native Win32 interface for Win NT & 2000
Gap handling : Appended to previous track
Used output format : User Defined Encoder
Selected bitrate : 1024 kBit/s
Quality : High
Add ID3 tag : No
Command line compressor : C:\Program Files\Exact Audio Copy\Flac\flac.exe
Additional command line options : -6 -V -T "ARTIST=%artist%" -T "TITLE=%title%" -T "ALBUM=%albumtitle%" -T "DATE=%year%" -T "TRACKNUMBER=%tracknr%" -T "GENRE=%genre%" -T "COMMENT=%comment%" -T "ALBUMARTIST=%albuminterpret%" -T "COMPOSER=%composer%" -T "DISCNUMBER=%cdnumber%" -T "TOTALDISCS=%totalcds%" -T "TOTALTRACKS=%numtracks%" %source% -o %dest%
TOC of the extracted CD
Track | Start | Length | Start sector | End sector
---------------------------------------------------------
1 | 0:00.37 | 3:14.28 | 37 | 14614
2 | 3:14.65 | 4:44.42 | 14615 | 35956
3 | 7:59.32 | 2:32.43 | 35957 | 47399
4 | 10:32.00 | 3:37.15 | 47400 | 63689
5 | 14:09.15 | 3:45.40 | 63690 | 80604
6 | 17:54.55 | 3:19.32 | 80605 | 95561
7 | 21:14.12 | 3:15.70 | 95562 | 110256
8 | 24:30.07 | 3:51.55 | 110257 | 127636
9 | 28:21.62 | 3:08.50 | 127637 | 141786
10 | 31:30.37 | 4:45.25 | 141787 | 163186
11 | 36:15.62 | 4:39.33 | 163187 | 184144
12 | 40:55.20 | 3:44.60 | 184145 | 201004
13 | 44:40.05 | 3:56.50 | 201005 | 218754
14 | 48:36.55 | 3:59.47 | 218755 | 236726
15 | 52:36.27 | 3:56.68 | 236727 | 254494
16 | 56:33.20 | 3:37.40 | 254495 | 270809
17 | 60:10.60 | 4:22.05 | 270810 | 290464
18 | 64:32.65 | 1:44.35 | 290465 | 298299
Track 1
Filename C:\Ripped by Filex\01 - Kathy Sampson - A Good Friend.wav
Pre-gap length 0:00:02.37
Peak level 98.2 %
Extraction speed 4.9 X
Track quality 100.0 %
Test CRC E501768E
Copy CRC E501768E
Accurately ripped (confidence 2) [304B4FD3] (AR v2)
Copy OK
Track 2
Filename C:\Ripped by Filex\02 - Pur - Abenteuerland (Single Version).wav
Pre-gap length 0:00:02.73
Peak level 83.9 %
Extraction speed 3.8 X
Track quality 100.0 %
Test CRC C07C26BF
Copy CRC C07C26BF
Accurately ripped (confidence 2) [B44C5C05] (AR v2)
Copy OK
Track 3
Filename C:\Ripped by Filex\03 - Nice Little Penguins - Flying.wav
Pre-gap length 0:00:02.50
Peak level 99.9 %
Extraction speed 4.9 X
Track quality 100.0 %
Test CRC 024EE890
Copy CRC 024EE890
Accurately ripped (confidence 2) [E5115BFA] (AR v2)
Copy OK
Track 4
Filename C:\Ripped by Filex\04 - Bed & Breakfast - You Made Me Believe in Magic (Radio Edit).wav
Pre-gap length 0:00:03.43
Peak level 96.6 %
Extraction speed 3.6 X
Track quality 100.0 %
Test CRC C3430806
Copy CRC C3430806
Accurately ripped (confidence 2) [4AF0E75A] (AR v2)
Copy OK
Track 5
Filename C:\Ripped by Filex\05 - Worlds Apart - Could It Be I'm Falling in Love.wav
Pre-gap length 0:00:02.15
Peak level 95.1 %
Extraction speed 3.8 X
Track quality 100.0 %
Test CRC 11F5DFC2
Copy CRC 11F5DFC2
Accurately ripped (confidence 2) [9B60C279] (AR v2)
Copy OK
Track 6
Filename C:\Ripped by Filex\06 - PJ & Duncan - Stuck On U (100% Radio Mix).wav
Pre-gap length 0:00:02.35
Peak level 99.9 %
Extraction speed 4.8 X
Track quality 100.0 %
Test CRC 4140DA9C
Copy CRC 4140DA9C
Accurately ripped (confidence 2) [6DF1718C] (AR v2)
Copy OK
Track 7
Filename C:\Ripped by Filex\07 - Aswad - You're No Good (7'' Beatmaster Mix).wav
Pre-gap length 0:00:02.62
Peak level 89.1 %
Extraction speed 4.6 X
Track quality 100.0 %
Test CRC B22FDABA
Copy CRC B22FDABA
Accurately ripped (confidence 2) [F10E95F1] (AR v2)
Copy OK
Track 8
Filename C:\Ripped by Filex\08 - Grooveminister - Verdient (Normale Version).wav
Pre-gap length 0:00:02.40
Peak level 88.0 %
Extraction speed 3.6 X
Track quality 99.9 %
Test CRC 5714D09A
Copy CRC 5714D09A
Accurately ripped (confidence 2) [1EEC1D4D] (AR v2)
Copy OK
Track 9
Filename C:\Ripped by Filex\09 - Schwester - Ja klar (1822 Radio Edit).wav
Pre-gap length 0:00:02.32
Peak level 97.7 %
Extraction speed 4.6 X
Track quality 100.0 %
Test CRC 360FE4C7
Copy CRC 360FE4C7
Accurately ripped (confidence 2) [0B28D4C8] (AR v2)
Copy OK
Track 10
Filename C:\Ripped by Filex\10 - Erasure - Stay With Me.wav
Pre-gap length 0:00:03.35
Peak level 98.8 %
Extraction speed 4.7 X
Track quality 100.0 %
Test CRC 468FF289
Copy CRC 468FF289
Accurately ripped (confidence 2) [0F4F931F] (AR v2)
Copy OK
Track 11
Filename C:\Ripped by Filex\11 - The Connells - ''74-''75 (Album Version).wav
Pre-gap length 0:00:03.10
Peak level 88.9 %
Extraction speed 4.4 X
Track quality 100.0 %
Test CRC 78F6A0BA
Copy CRC 78F6A0BA
Accurately ripped (confidence 2) [3AF5164D] (AR v2)
Copy OK
Track 12
Filename C:\Ripped by Filex\12 - The Kelly Family - Roses of Red (Single Remix).wav
Pre-gap length 0:00:02.68
Peak level 100.0 %
Extraction speed 4.3 X
Track quality 100.0 %
Test CRC 24E8A199
Copy CRC 24E8A199
Accurately ripped (confidence 2) [4C0E856C] (AR v2)
Copy OK
Track 13
Filename C:\Ripped by Filex\13 - Bad Boys Blue - Hold You in My Arms (Radio Edit).wav
Pre-gap length 0:00:02.33
Peak level 89.1 %
Extraction speed 3.5 X
Track quality 100.0 %
Test CRC 7EC1F9CD
Copy CRC 7EC1F9CD
Accurately ripped (confidence 2) [4830CECB] (AR v2)
Copy OK
Track 14
Filename C:\Ripped by Filex\14 - Captain Hollywood Project - The Way Love Is (Ragga Single Mix).wav
Pre-gap length 0:00:02.60
Peak level 91.1 %
Extraction speed 4.9 X
Track quality 100.0 %
Test CRC 1F2C699C
Copy CRC 1F2C699C
Accurately ripped (confidence 2) [48675DF4] (AR v2)
Copy OK
Track 15
Filename C:\Ripped by Filex\15 - D.J. Bobo - Freedom (Radio Version).wav
Pre-gap length 0:00:02.65
Peak level 97.8 %
Extraction speed 4.9 X
Track quality 100.0 %
Test CRC 8F9C9BC6
Copy CRC 8F9C9BC6
Accurately ripped (confidence 2) [5CE7D3EE] (AR v2)
Copy OK
Track 16
Filename C:\Ripped by Filex\16 - Smokie - Who The F... Is Alice.wav
Pre-gap length 0:00:02.70
Peak level 100.0 %
Extraction speed 4.8 X
Track quality 100.0 %
Test CRC 1FBC4438
Copy CRC 1FBC4438
Accurately ripped (confidence 2) [5B76A196] (AR v2)
Copy OK
Track 17
Filename C:\Ripped by Filex\17 - Todd Taylor And The Tragic Rogues - Lake Hollywood.wav
Pre-gap length 0:00:02.55
Peak level 98.1 %
Extraction speed 4.8 X
Track quality 100.0 %
Test CRC D6B50625
Copy CRC D6B50625
Accurately ripped (confidence 2) [742F8890] (AR v2)
Copy OK
Track 18
Filename C:\Ripped by Filex\18 - Rex und seine Freunde - Jingle Bells.wav
Pre-gap length 0:00:02.70
Peak level 99.9 %
Extraction speed 3.9 X
Track quality 100.0 %
Test CRC 354441D2
Copy CRC 354441D2
Accurately ripped (confidence 2) [4BAC693C] (AR v2)
Copy OK
All tracks accurately ripped
No errors occurred
End of status report
---- CUETools DB Plugin V2.1.6
[CTDB TOCID: .PBhsooQE.Rrgfk.aq7dcSuiUY4-] found
Submit result: .PBhsooQE.Rrgfk.aq7dcSuiUY4- has been confirmed
Track | CTDB Status
1 | (7/7) Accurately ripped
2 | (7/7) Accurately ripped
3 | (7/7) Accurately ripped
4 | (7/7) Accurately ripped
5 | (7/7) Accurately ripped
6 | (7/7) Accurately ripped
7 | (7/7) Accurately ripped
8 | (7/7) Accurately ripped
9 | (7/7) Accurately ripped
10 | (7/7) Accurately ripped
11 | (7/7) Accurately ripped
12 | (7/7) Accurately ripped
13 | (7/7) Accurately ripped
14 | (7/7) Accurately ripped
15 | (7/7) Accurately ripped
16 | (7/7) Accurately ripped
17 | (7/7) Accurately ripped
18 | (7/7) Accurately ripped
==== Log checksum 02290E8F940998CFDBAC5FD3079870FA38307375CC2D35A5599142EDCC347920 ====
LOG (.CUE):
REM GENRE Soundtrack
REM DATE 1995
REM DISCID 160F8912
REM COMMENT "ExactAudioCopy v1.3"
PERFORMER "Various Artists"
TITLE "Kommissar Rex Vol. 2"
FILE "01 - Kathy Sampson - A Good Friend.wav" WAVE
TRACK 01 AUDIO
TITLE "A Good Friend"
PERFORMER "Kathy Sampson"
PREGAP 00:00:37
INDEX 01 00:00:00
TRACK 02 AUDIO
TITLE "Abenteuerland (Single Version)"
PERFORMER "Pur"
INDEX 00 03:11:30
FILE "02 - Pur - Abenteuerland.wav" WAVE
INDEX 01 00:00:00
TRACK 03 AUDIO
TITLE "Flying"
PERFORMER "Nice Little Penguins"
INDEX 00 04:41:67
FILE "03 - Nice Little Penguins - Flying.wav" WAVE
INDEX 01 00:00:00
TRACK 04 AUDIO
TITLE "You Made Me Believe in Magic (Radio Edit)"
PERFORMER "Bed & Breakfast"
INDEX 00 02:29:00
FILE "04 - Bed & Breakfast - You Made Me Believe in Magic.wav" WAVE
INDEX 01 00:00:00
TRACK 05 AUDIO
TITLE "Could It Be I'm Falling in Love "
PERFORMER "Worlds Apart"
INDEX 00 03:35:00
FILE "05 - Worlds Apart - Could It Be I'm Falling in Love.wav" WAVE
INDEX 01 00:00:00
TRACK 06 AUDIO
TITLE "Stuck On U (100% Radio Mix)"
PERFORMER "PJ & Duncan"
INDEX 00 03:43:05
FILE "06 - PJ & Duncan - Stuck On U.wav" WAVE
INDEX 01 00:00:00
TRACK 07 AUDIO
TITLE "You're No Good (7'' Beatmaster Mix)"
PERFORMER "Aswad"
INDEX 00 03:16:45
FILE "07 - Aswad - You're No Good.wav" WAVE
INDEX 01 00:00:00
TRACK 08 AUDIO
TITLE "Verdient (Normale Version)"
PERFORMER "Grooveminister"
INDEX 00 03:13:30
FILE "08 - Grooveminister - Verdient.wav" WAVE
INDEX 01 00:00:00
TRACK 09 AUDIO
TITLE "Ja klar (1822 Radio Edit)"
PERFORMER "Schwester S."
INDEX 00 03:49:23
FILE "09 - Schwester S. - Ja klar.wav" WAVE
INDEX 01 00:00:00
TRACK 10 AUDIO
TITLE "Stay With Me"
PERFORMER "Erasure"
INDEX 00 03:05:15
FILE "10 - Erasure - Stay With Me.wav" WAVE
INDEX 01 00:00:00
TRACK 11 AUDIO
TITLE "'74-'75 (Album Version)"
PERFORMER "The Connells"
INDEX 00 04:42:15
FILE "11 - The Connells - '74-'75.wav" WAVE
INDEX 01 00:00:00
TRACK 12 AUDIO
TITLE "Roses of Red (Single-Remix)"
PERFORMER "The Kelly Family"
INDEX 00 04:36:40
FILE "12 - The Kelly Family - Roses of Red.wav" WAVE
INDEX 01 00:00:00
TRACK 13 AUDIO
TITLE "Hold You in My Arms (Radio Edit)"
PERFORMER "Bad Boys Blue"
INDEX 00 03:42:27
FILE "13 - Bad Boys Blue - Hold You in My Arms.wav" WAVE
INDEX 01 00:00:00
TRACK 14 AUDIO
TITLE "The Way Love Is (Ragga Single Mix)"
PERFORMER "Captain Hollywood Project"
INDEX 00 03:53:65
FILE "14 - Captain Hollywood Project - The Way Love Is.wav" WAVE
INDEX 01 00:00:00
TRACK 15 AUDIO
TITLE "Freedom (Radio Version)"
PERFORMER "D.J. Bobo"
INDEX 00 03:56:57
FILE "15 - D.J. Bobo - Freedom.wav" WAVE
INDEX 01 00:00:00
TRACK 16 AUDIO
TITLE "Who The F... Is Alice"
PERFORMER "Smokie"
INDEX 00 03:53:73
FILE "16 - Smokie - Who The F... Is Alice.wav" WAVE
INDEX 01 00:00:00
TRACK 17 AUDIO
TITLE "Lake Hollywood"
PERFORMER "Todd Taylor and The Tragic Rogues"
INDEX 00 03:34:60
FILE "17 - Todd Taylor and The Tragic Rogues - Lake Hollywood.wav" WAVE
INDEX 01 00:00:00
TRACK 18 AUDIO
TITLE "Jingle Bells"
PERFORMER "Rex und seine Freunde"
INDEX 00 04:19:10
FILE "18 - Rex und seine Freunde - Jingle Bells.wav" WAVE
INDEX 01 00:00:00
-(Soundtrack) Комиссар Рекс / Kommissar Rex: Vol. 1 (by Various Artists) - 1994, FLAC (tracks+.cue), lossless
(Soundtrack) Комиссар Рекс / Kommissar Rex: Vol. 3 (by Various Artists) - 1996 (1994), FLAC (tracks+.cue), lossless
(Soundtrack) Комиссар Рекс / Kommissar Rex: Vol. 4 (by Various Artists) - 1997 (1994), FLAC (tracks+.cue), lossless
(Soundtrack) Комиссар Рекс / Kommissar Rex (Vol.1 & Vol.2) - 1994, 1995, MP3 (tracks), 320 kbps
(Soundtrack) Комиссар Рекс / Kommissar Rex (Vol.3 & Vol.4) - 1996, 1997, MP3 (tracks), 320 kbps- [hr
[Профиль] [ЛС]
Показать сообщения:    
Ответить на тему

Текущее время: 22-Июл 23:42

Часовой пояс: UTC + 3



Вы не можете начинать темы
Вы не можете отвечать на сообщения
Вы не можете редактировать свои сообщения
Вы не можете удалять свои сообщения
Вы не можете голосовать в опросах
Вы не можете прикреплять файлы к сообщениям
Вы не можете скачивать файлы