Сегодня идет свободное скачивание без начисления Download

(Soundtrack) Комиссар Рекс / Kommissar Rex: Vol. 3 (by Various Artists) - 1996 (1994), FLAC (tracks+.cue), lossless

Ответить на тему
 
Автор Сообщение

Bot ®

Стаж: 1 год 7 месяцев

Сообщений: 166

Создавать темы 09-Июл-2018 09:55

[Цитировать]

Комиссар Рекс / Kommissar Rex: Vol. 3
Название альбома: Kommissar Rex
Жанр: Soundtrack
Композитор: Various Artists
Год выпуска диска: 1996
Год выпуска фильма: 1994
Производитель диска: NL
Издатель (лейбл): Intercord
Номер по каталогу: INT 860.309
Аудиокодек: FLAC
Тип рипа: tracks+.cue
Битрейт аудио: lossless
Продолжительность: 01:07:17
Источник: Спасибо, Filex
Наличие сканов в содержимом раздачи: да
Треклист:
01. Blümchen - Du und ich (Du in der Luft Mix) (3:33)
02. Dune - Million Miles From Home (Video Mix) (3:59)
03. DJ Bobo - Pray (Radio Version) (3:51)
04. Backstreet Boys - Get Down (You're the One for Me) (LP-Edit) (3:34)
05. No Mercy - Missing (Radio Version) (3:59)
06. Mr. President - Coco Jamboo (Radio Version) (3:38)
07. Captain Jack - Soldier, Soldier (It's Summertime Mix) (3:42)
08. Interactive - Sun Always Shines on TV (Radio Version) (3:22)
09. Masterboy - Mister Feeling (Radio Edit) (3:52)
10. Culture Beat - Crying in the Rain (Radio Edit) (3:54)
11. Intermission - Real Love (Radio Mix) (3:45)
12. Beat System - Fresh (Radio Mix) (3:05)
13. Centory feat. Trey D. - Girl You Know It's True (Radio Version) (3:49)
14. Robert Miles - Children (Short Version) (3:52)
15. Faithless - Salva mea (Radion Edit) (3:46)
16. Sandy & Papo MC - Mueve Mueve (I Like to Move It) (4:46)
17. Kathy Sampson - A Good Friend (Remix) (3:10)
18. Kommissar Rex And His Friends - Christmas Medley (3:40)
Лог создания рипа:
Exact Audio Copy V1.3 from 2. September 2016
EAC extraction logfile from 7. July 2018, 7:54
Various Artists / Kommissar Rex Vol.3
Used drive : PLEXTOR CD-R PX-230A Adapter: 1 ID: 0
Read mode : Secure
Utilize accurate stream : Yes
Defeat audio cache : Yes
Make use of C2 pointers : No
Read offset correction : 738
Overread into Lead-In and Lead-Out : No
Fill up missing offset samples with silence : Yes
Delete leading and trailing silent blocks : No
Null samples used in CRC calculations : Yes
Used interface : Native Win32 interface for Win NT & 2000
Gap handling : Appended to previous track
Used output format : User Defined Encoder
Selected bitrate : 1024 kBit/s
Quality : High
Add ID3 tag : No
Command line compressor : C:\Program Files\Exact Audio Copy\Flac\flac.exe
Additional command line options : -6 -V -T "ARTIST=%artist%" -T "TITLE=%title%" -T "ALBUM=%albumtitle%" -T "DATE=%year%" -T "TRACKNUMBER=%tracknr%" -T "GENRE=%genre%" -T "COMMENT=%comment%" -T "ALBUMARTIST=%albuminterpret%" -T "COMPOSER=%composer%" -T "DISCNUMBER=%cdnumber%" -T "TOTALDISCS=%totalcds%" -T "TOTALTRACKS=%numtracks%" %source% -o %dest%
TOC of the extracted CD
Track | Start | Length | Start sector | End sector
---------------------------------------------------------
1 | 0:00.00 | 3:32.52 | 0 | 15951
2 | 3:32.52 | 3:58.38 | 15952 | 33839
3 | 7:31.15 | 3:50.65 | 33840 | 51154
4 | 11:22.05 | 3:33.65 | 51155 | 67194
5 | 14:55.70 | 3:59.02 | 67195 | 85121
6 | 18:54.72 | 3:38.13 | 85122 | 101484
7 | 22:33.10 | 3:41.70 | 101485 | 118129
8 | 26:15.05 | 3:21.47 | 118130 | 133251
9 | 29:36.52 | 3:52.18 | 133252 | 150669
10 | 33:28.70 | 3:53.47 | 150670 | 168191
11 | 37:22.42 | 3:45.33 | 168192 | 185099
12 | 41:08.00 | 3:05.15 | 185100 | 198989
13 | 44:13.15 | 3:49.02 | 198990 | 216166
14 | 48:02.17 | 3:51.38 | 216167 | 233529
15 | 51:53.55 | 3:46.22 | 233530 | 250501
16 | 55:40.02 | 4:46.05 | 250502 | 271956
17 | 60:26.07 | 3:10.25 | 271957 | 286231
18 | 63:36.32 | 3:40.03 | 286232 | 302734
Track 1
Filename C:\Ripped by Filex\01 - Bluemchen - Du und ich (Du in der Luft Mix).wav
Pre-gap length 0:00:02.00
Peak level 65.3 %
Extraction speed 6.6 X
Track quality 100.0 %
Test CRC BD026C57
Copy CRC BD026C57
Accurately ripped (confidence 3) [519DA7FC] (AR v1)
Copy OK
Track 2
Filename C:\Ripped by Filex\02 - Dune - Million Miles From Home (Video Mix).wav
Pre-gap length 0:00:00.37
Peak level 100.0 %
Extraction speed 7.1 X
Track quality 100.0 %
Test CRC 37B3F94E
Copy CRC 37B3F94E
Accurately ripped (confidence 3) [08595F7B] (AR v1)
Copy OK
Track 3
Filename C:\Ripped by Filex\03 - DJ Bobo - Pray (Radio Version).wav
Pre-gap length 0:00:00.20
Peak level 99.9 %
Extraction speed 7.3 X
Track quality 100.0 %
Test CRC 87B78148
Copy CRC 87B78148
Accurately ripped (confidence 3) [AFE60578] (AR v1)
Copy OK
Track 4
Filename C:\Ripped by Filex\04 - Backstreet Boys - Get Down (You're the One for Me) (LP-Edit).wav
Pre-gap length 0:00:00.33
Peak level 100.0 %
Extraction speed 7.3 X
Track quality 100.0 %
Test CRC F44F15B4
Copy CRC F44F15B4
Accurately ripped (confidence 3) [2EF62982] (AR v1)
Copy OK
Track 5
Filename C:\Ripped by Filex\05 - No Mercy - Missing (Radio Version).wav
Pre-gap length 0:00:00.60
Peak level 100.0 %
Extraction speed 6.8 X
Track quality 99.9 %
Test CRC 120AF773
Copy CRC 120AF773
Accurately ripped (confidence 3) [974AAD7C] (AR v1)
Copy OK
Track 6
Filename C:\Ripped by Filex\06 - Mr. President - Coco Jamboo (Radio Version).wav
Pre-gap length 0:00:00.55
Peak level 79.4 %
Extraction speed 7.9 X
Track quality 100.0 %
Test CRC 4A7F13EB
Copy CRC 4A7F13EB
Accurately ripped (confidence 3) [7DC0D7E4] (AR v1)
Copy OK
Track 7
Filename C:\Ripped by Filex\07 - Captain Jack - Soldier, Soldier (It's Summertime Mix).wav
Pre-gap length 0:00:00.35
Peak level 100.0 %
Extraction speed 8.2 X
Track quality 100.0 %
Test CRC CD8183E2
Copy CRC CD8183E2
Accurately ripped (confidence 3) [22F2C5CC] (AR v1)
Copy OK
Track 8
Filename C:\Ripped by Filex\08 - Interactive - Sun Always Shines on TV (Radio Version).wav
Pre-gap length 0:00:00.20
Peak level 100.0 %
Extraction speed 8.6 X
Track quality 100.0 %
Test CRC C127F814
Copy CRC C127F814
Accurately ripped (confidence 3) [9590D2A4] (AR v1)
Copy OK
Track 9
Filename C:\Ripped by Filex\09 - Masterboy - Mister Feeling (Radio Edit).wav
Pre-gap length 0:00:01.15
Peak level 89.1 %
Extraction speed 8.7 X
Track quality 100.0 %
Test CRC 265B45BC
Copy CRC 265B45BC
Accurately ripped (confidence 3) [3EB73EA9] (AR v1)
Copy OK
Track 10
Filename C:\Ripped by Filex\10 - Culture Beat - Crying in the Rain (Radio Edit).wav
Pre-gap length 0:00:00.25
Peak level 100.0 %
Extraction speed 9.1 X
Track quality 100.0 %
Test CRC 78DABD75
Copy CRC 78DABD75
Accurately ripped (confidence 3) [EBC505FD] (AR v1)
Copy OK
Track 11
Filename C:\Ripped by Filex\11 - Intermission - Real Love (Radio Mix).wav
Pre-gap length 0:00:00.50
Peak level 100.0 %
Extraction speed 8.1 X
Track quality 99.9 %
Test CRC 4075144B
Copy CRC 4075144B
Accurately ripped (confidence 3) [F6622CCB] (AR v1)
Copy OK
Track 12
Filename C:\Ripped by Filex\12 - Beat System - Fresh (Radio Mix).wav
Pre-gap length 0:00:00.55
Peak level 82.2 %
Extraction speed 9.3 X
Track quality 100.0 %
Test CRC 8E4B879C
Copy CRC 8E4B879C
Accurately ripped (confidence 3) [13077F04] (AR v1)
Copy OK
Track 13
Filename C:\Ripped by Filex\13 - Centory feat. Trey D. - Girl You Know It's True (Radio Version).wav
Pre-gap length 0:00:00.73
Peak level 97.7 %
Extraction speed 9.8 X
Track quality 100.0 %
Test CRC 58A89070
Copy CRC 58A89070
Accurately ripped (confidence 3) [5F23AC16] (AR v1)
Copy OK
Track 14
Filename C:\Ripped by Filex\14 - Robert Miles - Children (Short Version).wav
Pre-gap length 0:00:00.62
Peak level 100.0 %
Extraction speed 10.0 X
Track quality 100.0 %
Test CRC 7ACD638B
Copy CRC 7ACD638B
Accurately ripped (confidence 3) [49BE20B5] (AR v1)
Copy OK
Track 15
Filename C:\Ripped by Filex\15 - Faithless - Salva mea (Radion Edit).wav
Pre-gap length 0:00:01.00
Peak level 95.5 %
Extraction speed 10.1 X
Track quality 100.0 %
Test CRC 17A97A61
Copy CRC 17A97A61
Accurately ripped (confidence 3) [A7CE32C4] (AR v1)
Copy OK
Track 16
Filename C:\Ripped by Filex\16 - Sadny & Papo MC - Mueve Mueve (I Like to Move It).wav
Peak level 100.0 %
Extraction speed 10.6 X
Track quality 100.0 %
Test CRC 4BF43142
Copy CRC 4BF43142
Accurately ripped (confidence 3) [E18EB8FA] (AR v1)
Copy OK
Track 17
Filename C:\Ripped by Filex\17 - Kathy Sampson - A Good Friend (Remix).wav
Pre-gap length 0:00:00.22
Peak level 100.0 %
Extraction speed 10.4 X
Track quality 100.0 %
Test CRC ECC1D14B
Copy CRC ECC1D14B
Accurately ripped (confidence 4) [C7382040] (AR v1)
Copy OK
Track 18
Filename C:\Ripped by Filex\18 - Kommisar Rex And His Friends - Christmas Medley.wav
Pre-gap length 0:00:00.20
Peak level 100.0 %
Extraction speed 10.7 X
Track quality 100.0 %
Test CRC 97371DF8
Copy CRC 97371DF8
Accurately ripped (confidence 3) [DAC54D8F] (AR v1)
Copy OK
All tracks accurately ripped
No errors occurred
End of status report
---- CUETools DB Plugin V2.1.6
[CTDB TOCID: oazY6AidsZU5vKcMkaPWa2lS5yY-] found
Submit result: oazY6AidsZU5vKcMkaPWa2lS5yY- has been confirmed
Track | CTDB Status
1 | (4/4) Accurately ripped
2 | (4/4) Accurately ripped
3 | (4/4) Accurately ripped
4 | (4/4) Accurately ripped
5 | (4/4) Accurately ripped
6 | (4/4) Accurately ripped
7 | (4/4) Accurately ripped
8 | (4/4) Accurately ripped
9 | (4/4) Accurately ripped
10 | (4/4) Accurately ripped
11 | (4/4) Accurately ripped
12 | (4/4) Accurately ripped
13 | (4/4) Accurately ripped
14 | (4/4) Accurately ripped
15 | (4/4) Accurately ripped
16 | (4/4) Accurately ripped
17 | (4/4) Accurately ripped
18 | (4/4) Accurately ripped
==== Log checksum 57B33F772D230B7823FA9720034FE3FD04431381031F6E72D5E827DB4AB7AFB0 ====
LOG (.CUE):
REM GENRE Soundtrack
REM DATE 1996
REM DISCID 050FC412
REM COMMENT "ExactAudioCopy v1.3"
PERFORMER "Various Artists"
TITLE "Kommissar Rex Vol. 3"
FILE "01 - Bluemchen - Du und ich (Du in der Luft Mix).wav" WAVE
TRACK 01 AUDIO
TITLE "Du und ich (Du in der Luft Mix)"
PERFORMER "Blьmchen"
INDEX 01 00:00:00
TRACK 02 AUDIO
TITLE "Million Miles From Home (Video Mix)"
PERFORMER "Dune"
INDEX 00 03:32:15
FILE "02 - Dune - Million Miles From Home (Video Mix).wav" WAVE
INDEX 01 00:00:00
TRACK 03 AUDIO
TITLE "Pray (Radio Version)"
PERFORMER "DJ Bobo"
INDEX 00 03:58:18
FILE "03 - DJ Bobo - Pray (Radio Version).wav" WAVE
INDEX 01 00:00:00
TRACK 04 AUDIO
TITLE "Get Down (You're the One for Me) (LP-Edit)"
PERFORMER "Backstreet Boys"
INDEX 00 03:50:32
FILE "04 - Backstreet Boys - Get Down (You're the One for Me) (LP-Edit).wav" WAVE
INDEX 01 00:00:00
TRACK 05 AUDIO
TITLE "Missing (Radio Version)"
PERFORMER "No Mercy"
INDEX 00 03:33:05
FILE "05 - No Mercy - Missing (Radio Version).wav" WAVE
INDEX 01 00:00:00
TRACK 06 AUDIO
TITLE "Coco Jamboo (Radio Version)"
PERFORMER "Mr. President"
INDEX 00 03:58:22
FILE "06 - Mr. President - Coco Jamboo (Radio Version).wav" WAVE
INDEX 01 00:00:00
TRACK 07 AUDIO
TITLE "Soldier, Soldier (It's Summertime Mix)"
PERFORMER "Captain Jack"
INDEX 00 03:37:53
FILE "07 - Captain Jack - Soldier, Soldier (It's Summertime Mix).wav" WAVE
INDEX 01 00:00:00
TRACK 08 AUDIO
TITLE "Sun Always Shines on TV (Radio Version)"
PERFORMER "Interactive"
INDEX 00 03:41:50
FILE "08 - Interactive - Sun Always Shines on TV (Radio Version).wav" WAVE
INDEX 01 00:00:00
TRACK 09 AUDIO
TITLE "Mister Feeling (Radio Edit)"
PERFORMER "Masterboy"
INDEX 00 03:20:32
FILE "09 - Masterboy - Mister Feeling (Radio Edit).wav" WAVE
INDEX 01 00:00:00
TRACK 10 AUDIO
TITLE "Crying in the Rain (Radio Edit)"
PERFORMER "Culture Beat"
INDEX 00 03:51:68
FILE "10 - Culture Beat - Crying in the Rain (Radio Edit).wav" WAVE
INDEX 01 00:00:00
TRACK 11 AUDIO
TITLE "Real Love (Radio Mix)"
PERFORMER "Intermission"
INDEX 00 03:52:72
FILE "11 - Intermission - Real Love (Radio Mix).wav" WAVE
INDEX 01 00:00:00
TRACK 12 AUDIO
TITLE "Fresh (Radio Mix)"
PERFORMER "Beat System"
INDEX 00 03:44:53
FILE "12 - Beat System - Fresh (Radio Mix).wav" WAVE
INDEX 01 00:00:00
TRACK 13 AUDIO
TITLE "Girl You Know It's True (Radio Version)"
PERFORMER "Centory feat. Trey D."
INDEX 00 03:04:17
FILE "13 - Centory feat. Trey D. - Girl You Know It's True (Radio Version).wav" WAVE
INDEX 01 00:00:00
TRACK 14 AUDIO
TITLE "Children (Short Version)"
PERFORMER "Robert Miles"
INDEX 00 03:48:15
FILE "14 - Robert Miles - Children (Short Version).wav" WAVE
INDEX 01 00:00:00
TRACK 15 AUDIO
TITLE "Salva mea (Radion Edit)"
PERFORMER "Faithless"
INDEX 00 03:50:38
FILE "15 - Faithless - Salva mea (Radion Edit).wav" WAVE
INDEX 01 00:00:00
FILE "16 - Sandy & Papo MC - Mueve Mueve (I Like to Move It).wav" WAVE
TRACK 16 AUDIO
TITLE "Mueve Mueve (I Like to Move It)"
PERFORMER "Sandy & Papo MC"
INDEX 01 00:00:00
TRACK 17 AUDIO
TITLE "A Good Friend (Remix)"
PERFORMER "Kathy Sampson"
INDEX 00 04:45:58
FILE "17 - Kathy Sampson - A Good Friend (Remix).wav" WAVE
INDEX 01 00:00:00
TRACK 18 AUDIO
TITLE "Christmas Medley"
PERFORMER "Kommissar Rex And His Friends"
INDEX 00 03:10:05
FILE "18 - Kommissar Rex And His Friends - Christmas Medley.wav" WAVE
INDEX 01 00:00:00
-(Soundtrack) Комиссар Рекс / Kommissar Rex: Vol. 1 (by Various Artists) - 1994, FLAC (tracks+.cue), lossless
(Soundtrack) Комиссар Рекс / Kommissar Rex: Vol. 2 (by Various Artists) - 1995 (1994), FLAC (tracks+.cue), lossless
(Soundtrack) Комиссар Рекс / Kommissar Rex: Vol. 4 (by Various Artists) - 1997 (1994), FLAC (tracks+.cue), lossless
(Soundtrack) Комиссар Рекс / Kommissar Rex (Vol.1 & Vol.2) - 1994, 1995, MP3 (tracks), 320 kbps
(Soundtrack) Комиссар Рекс / Kommissar Rex (Vol.3 & Vol.4) - 1996, 1997, MP3 (tracks), 320 kbps- -
[Профиль] [ЛС]
Показать сообщения:    
Ответить на тему

Текущее время: 22-Июл 23:40

Часовой пояс: UTC + 3



Вы не можете начинать темы
Вы не можете отвечать на сообщения
Вы не можете редактировать свои сообщения
Вы не можете удалять свои сообщения
Вы не можете голосовать в опросах
Вы не можете прикреплять файлы к сообщениям
Вы не можете скачивать файлы