Сегодня идет свободное скачивание без начисления Download

(Soundtrack) Комиссар Рекс / Kommissar Rex: Vol. 4 (by Various Artists) - 1997 (1994), FLAC (tracks+.cue), lossless

Ответить на тему
 
Автор Сообщение

Bot ®

Стаж: 1 год 7 месяцев

Сообщений: 166

Создавать темы 09-Июл-2018 09:56

[Цитировать]

Комиссар Рекс / Kommissar Rex: Vol. 4
Название альбома: Kommissar Rex
Жанр: Soundtrack
Композитор: Various Artists
Год выпуска диска: 1997
Год выпуска фильма: 1994
Производитель диска: NL
Издатель (лейбл): Intercord
Номер по каталогу: INT 4 84507 2 / 7243 4 84507 2 2
Аудиокодек: FLAC
Тип рипа: tracks+.cue
Битрейт аудио: lossless
Продолжительность: 01:06:01
Источник: Спасибо, Filex
Наличие сканов в содержимом раздачи: да
Треклист:
01. 'N Sync - I Want You Back (Radio Edit) (3:22)
02. Backstreet Boys - Everybody (Backstreet's Back) (3:45)
03. Aaron Carter - Crush on You (Main Mix) (3:28)
04. Touché - Can't Get No Sleep (Radio Edit) (3:57)
05. Stepahead - Free (Radio Version) (3:27)
06. Scooter - The Age of Love (3:52)
07. Mr. President - JoJo Action (Radio Edit) (3:52)
08. Ricky - Easy (7" Radio Cut) (3:25)
09. Fool's Garden - Probably (2:50)
10. Worlds Apart - Sie liebt dich / She Loves You (2:19)
11. DJ Bobo - Shadows of the Night (Radio Version) (4:00)
12. Hand in Hand for Children e.V. - Children Need a Helping Hand (Radio Version) (4:06)
13. E-Rotic - The Winner Takes It All (Radio Edit) (4:45)
14. Just Friends - What Is Love (Radio Version) (3:46)
15. Blümchen - Gib mir noch Zeit (Zeitloser Radio Mix) (3:48)
16. Caught in the Act - Babe (Radio Mix) (4:28)
17. The Boyz - Let Me Show You the Way (Single Edit / Original Mix) (3:52)
18. Robby Musenbichler - It's X-Mas (2:59)
Лог создания рипа:
Exact Audio Copy V1.3 from 2. September 2016
EAC extraction logfile from 7. July 2018, 20:06
Various Artists / Kommissar Rex Vol. 4
Used drive : PLEXTOR CD-R PX-230A Adapter: 1 ID: 0
Read mode : Secure
Utilize accurate stream : Yes
Defeat audio cache : Yes
Make use of C2 pointers : No
Read offset correction : 738
Overread into Lead-In and Lead-Out : No
Fill up missing offset samples with silence : Yes
Delete leading and trailing silent blocks : No
Null samples used in CRC calculations : Yes
Used interface : Native Win32 interface for Win NT & 2000
Gap handling : Appended to previous track
Used output format : User Defined Encoder
Selected bitrate : 1024 kBit/s
Quality : High
Add ID3 tag : No
Command line compressor : C:\Program Files\Exact Audio Copy\Flac\flac.exe
Additional command line options : -6 -V -T "ARTIST=%artist%" -T "TITLE=%title%" -T "ALBUM=%albumtitle%" -T "DATE=%year%" -T "TRACKNUMBER=%tracknr%" -T "GENRE=%genre%" -T "COMMENT=%comment%" -T "ALBUMARTIST=%albuminterpret%" -T "COMPOSER=%composer%" -T "DISCNUMBER=%cdnumber%" -T "TOTALDISCS=%totalcds%" -T "TOTALTRACKS=%numtracks%" %source% -o %dest%
TOC of the extracted CD
Track | Start | Length | Start sector | End sector
---------------------------------------------------------
1 | 0:00.00 | 3:22.25 | 0 | 15174
2 | 3:22.25 | 3:45.12 | 15175 | 32061
3 | 7:07.37 | 3:28.30 | 32062 | 47691
4 | 10:35.67 | 3:56.63 | 47692 | 65454
5 | 14:32.55 | 3:27.22 | 65455 | 81001
6 | 18:00.02 | 3:52.00 | 81002 | 98401
7 | 21:52.02 | 3:52.03 | 98402 | 115804
8 | 25:44.05 | 3:24.40 | 115805 | 131144
9 | 29:08.45 | 2:49.70 | 131145 | 143889
10 | 31:58.40 | 2:19.15 | 143890 | 154329
11 | 34:17.55 | 3:59.60 | 154330 | 172314
12 | 38:17.40 | 4:06.15 | 172315 | 190779
13 | 42:23.55 | 4:44.62 | 190780 | 212141
14 | 47:08.42 | 3:45.73 | 212142 | 229089
15 | 50:54.40 | 3:48.02 | 229090 | 246191
16 | 54:42.42 | 4:28.18 | 246192 | 266309
17 | 59:10.60 | 3:51.60 | 266310 | 283694
18 | 63:02.45 | 2:58.47 | 283695 | 297091
Track 1
Filename C:\Ripped by Filex\01 - 'N Sync - Want You Back (Radio Edit).wav
Pre-gap length 0:00:02.00
Peak level 95.5 %
Extraction speed 4.9 X
Track quality 100.0 %
Test CRC E76694A8
Copy CRC E76694A8
Accurately ripped (confidence 3) [A7F63201] (AR v1)
Copy OK
Track 2
Filename C:\Ripped by Filex\02 - Backstreet Boys - Everybody (Backstreet's Back).wav
Pre-gap length 0:00:01.28
Peak level 88.9 %
Extraction speed 5.3 X
Track quality 100.0 %
Test CRC C29BBAD8
Copy CRC C29BBAD8
Accurately ripped (confidence 3) [0D5A618C] (AR v1)
Copy OK
Track 3
Filename C:\Ripped by Filex\03 - Aaron Carter - Crush on You (Main Mix).wav
Pre-gap length 0:00:01.15
Peak level 100.0 %
Extraction speed 5.2 X
Track quality 100.0 %
Test CRC 4FA269DD
Copy CRC 4FA269DD
Accurately ripped (confidence 3) [FC2E933A] (AR v1)
Copy OK
Track 4
Filename C:\Ripped by Filex\04 - Touché - Can't Get No Sleep (Radio Edit).wav
Pre-gap length 0:00:00.62
Peak level 83.1 %
Extraction speed 5.3 X
Track quality 100.0 %
Test CRC 6EEC722F
Copy CRC 6EEC722F
Accurately ripped (confidence 3) [5EB1EFE6] (AR v1)
Copy OK
Track 5
Filename C:\Ripped by Filex\05 - Stepahead - Free (Radio Version).wav
Pre-gap length 0:00:01.43
Peak level 83.6 %
Extraction speed 4.4 X
Track quality 100.0 %
Test CRC A97044D1
Copy CRC A97044D1
Accurately ripped (confidence 3) [CB44253D] (AR v1)
Copy OK
Track 6
Filename C:\Ripped by Filex\06 - Scooter - The Age of Love.wav
Pre-gap length 0:00:01.37
Peak level 100.0 %
Extraction speed 5.2 X
Track quality 100.0 %
Test CRC 8A092754
Copy CRC 8A092754
Accurately ripped (confidence 3) [0585A0E4] (AR v1)
Copy OK
Track 7
Filename C:\Ripped by Filex\07 - Mr. President - JoJo Action (Radio Edit).wav
Pre-gap length 0:00:00.55
Peak level 94.3 %
Extraction speed 3.5 X
Track quality 99.9 %
Test CRC 43B1B171
Copy CRC 43B1B171
Accurately ripped (confidence 3) [9EED743A] (AR v1)
Copy OK
Track 8
Filename C:\Ripped by Filex\08 - Ricky - Easy (7'' Radio Cut).wav
Pre-gap length 0:00:00.60
Peak level 93.3 %
Extraction speed 3.3 X
Track quality 99.9 %
Test CRC 8A810B6B
Copy CRC 8A810B6B
Accurately ripped (confidence 3) [15B7019F] (AR v1)
Copy OK
Track 9
Filename C:\Ripped by Filex\09 - Fool's Garden - Probably.wav
Pre-gap length 0:00:01.60
Peak level 83.8 %
Extraction speed 5.0 X
Track quality 100.0 %
Test CRC 8770B46F
Copy CRC 8770B46F
Accurately ripped (confidence 3) [876EF81E] (AR v1)
Copy OK
Track 10
Filename C:\Ripped by Filex\10 - Worlds Apart - Sie liebt dich , She Loves You.wav
Pre-gap length 0:00:00.38
Peak level 98.8 %
Extraction speed 4.8 X
Track quality 100.0 %
Test CRC 5559B45E
Copy CRC 5559B45E
Accurately ripped (confidence 3) [9D28D2E5] (AR v1)
Copy OK
Track 11
Filename C:\Ripped by Filex\11 - DJ Bobo - Shadows of the Night (Radio Version).wav
Pre-gap length 0:00:01.05
Peak level 99.0 %
Extraction speed 4.6 X
Track quality 100.0 %
Test CRC BC7D9F2E
Copy CRC BC7D9F2E
Accurately ripped (confidence 3) [E878082B] (AR v1)
Copy OK
Track 12
Filename C:\Ripped by Filex\12 - Hand in Hand for Children e.V. - Children Need a Helping Hand (Radio Version).wav
Pre-gap length 0:00:01.30
Peak level 90.4 %
Extraction speed 4.4 X
Track quality 100.0 %
Test CRC 48AA426F
Copy CRC 48AA426F
Accurately ripped (confidence 3) [BC9C25B4] (AR v1)
Copy OK
Track 13
Filename C:\Ripped by Filex\13 - E-Rotic - The Winner Takes It All (Radio Edit).wav
Pre-gap length 0:00:01.18
Peak level 86.1 %
Extraction speed 4.8 X
Track quality 99.9 %
Test CRC E9476A2D
Copy CRC E9476A2D
Accurately ripped (confidence 3) [93A3E2D7] (AR v1)
Copy OK
Track 14
Filename C:\Ripped by Filex\14 - Just Friends - What Is Love (Radio Version).wav
Peak level 75.8 %
Extraction speed 5.0 X
Track quality 100.0 %
Test CRC F09EF540
Copy CRC F09EF540
Accurately ripped (confidence 3) [B19CDA68] (AR v1)
Copy OK
Track 15
Filename C:\Ripped by Filex\15 - Bluemchen - Gib mir noch Zeit (Zeitloser Radio Mix).wav
Pre-gap length 0:00:01.28
Peak level 100.0 %
Extraction speed 3.8 X
Track quality 100.0 %
Test CRC 34BB0C71
Copy CRC 34BB0C71
Accurately ripped (confidence 3) [3CBB66F2] (AR v1)
Copy OK
Track 16
Filename C:\Ripped by Filex\16 - Caught in the Act - Babe (Radio Mix).wav
Pre-gap length 0:00:01.50
Peak level 97.5 %
Extraction speed 4.7 X
Track quality 99.9 %
Test CRC FB62816B
Copy CRC FB62816B
Accurately ripped (confidence 3) [25007773] (AR v1)
Copy OK
Track 17
Filename C:\Ripped by Filex\17 - The Boyz - Let Me Show You the Way (Single Edit , Original Mix).wav
Pre-gap length 0:00:01.43
Peak level 89.1 %
Extraction speed 5.1 X
Track quality 100.0 %
Test CRC B76A93BA
Copy CRC B76A93BA
Accurately ripped (confidence 3) [3CF98460] (AR v1)
Copy OK
Track 18
Filename C:\Ripped by Filex\18 - Robby Musenbichler - It's X-Mas.wav
Pre-gap length 0:00:01.38
Peak level 85.2 %
Extraction speed 3.6 X
Track quality 99.9 %
Test CRC A742E1C9
Copy CRC A742E1C9
Accurately ripped (confidence 3) [E3A7A2D6] (AR v1)
Copy OK
All tracks accurately ripped
No errors occurred
End of status report
---- CUETools DB Plugin V2.1.6
[CTDB TOCID: kFyySE1ihzMS2xzQ3LL.T7Vlp.E-] found
Submit result: kFyySE1ihzMS2xzQ3LL.T7Vlp.E- has been confirmed
Track | CTDB Status
1 | (5/5) Accurately ripped
2 | (5/5) Accurately ripped
3 | (5/5) Accurately ripped
4 | (5/5) Accurately ripped
5 | (5/5) Accurately ripped
6 | (5/5) Accurately ripped
7 | (5/5) Accurately ripped
8 | (5/5) Accurately ripped
9 | (5/5) Accurately ripped
10 | (5/5) Accurately ripped
11 | (5/5) Accurately ripped
12 | (5/5) Accurately ripped
13 | (5/5) Accurately ripped
14 | (5/5) Accurately ripped
15 | (5/5) Accurately ripped
16 | (5/5) Accurately ripped
17 | (5/5) Accurately ripped
18 | (5/5) Accurately ripped
==== Log checksum E901BEB4B86BC70ADC3E2CAC9D5889D2A4AD27F2B7D2BF068475C542211C45B4 ====
LOG (.CUE)::
REM GENRE Soundtrack
REM DATE 1997
REM DISCID FE0F7912
REM COMMENT "ExactAudioCopy v1.3"
PERFORMER "Various Artists"
TITLE "Kommissar Rex Vol. 4"
FILE "01 - 'N Sync - I Want You Back (Radio Edit).wav" WAVE
TRACK 01 AUDIO
TITLE "I Want You Back (Radio Edit)"
PERFORMER "'N Sync"
INDEX 01 00:00:00
TRACK 02 AUDIO
TITLE "Everybody (Backstreet's Back)"
PERFORMER "Backstreet Boys"
INDEX 00 03:20:72
FILE "02 - Backstreet Boys - Everybody (Backstreet's Back).wav" WAVE
INDEX 01 00:00:00
TRACK 03 AUDIO
TITLE "Crush on You (Main Mix)"
PERFORMER "Aaron Carter"
INDEX 00 03:43:72
FILE "03 - Aaron Carter - Crush on You (Main Mix).wav" WAVE
INDEX 01 00:00:00
TRACK 04 AUDIO
TITLE "Can't Get No Sleep (Radio Edit)"
PERFORMER "Touchй"
INDEX 00 03:27:43
FILE "04 - Touche - Can't Get No Sleep (Radio Edit).wav" WAVE
INDEX 01 00:00:00
TRACK 05 AUDIO
TITLE "Free (Radio Version)"
PERFORMER "Stepahead"
INDEX 00 03:55:20
FILE "05 - Stepahead - Free (Radio Version).wav" WAVE
INDEX 01 00:00:00
TRACK 06 AUDIO
TITLE "The Age of Love"
PERFORMER "Scooter"
INDEX 00 03:25:60
FILE "06 - Scooter - The Age of Love.wav" WAVE
INDEX 01 00:00:00
TRACK 07 AUDIO
TITLE "JoJo Action (Radio Edit)"
PERFORMER "Mr. President"
INDEX 00 03:51:20
FILE "07 - Mr. President - JoJo Action (Radio Edit).wav" WAVE
INDEX 01 00:00:00
TRACK 08 AUDIO
TITLE "Easy (7'' Radio Cut)"
PERFORMER "Ricky"
INDEX 00 03:51:18
FILE "08 - Ricky - Easy (7'' Radio Cut).wav" WAVE
INDEX 01 00:00:00
TRACK 09 AUDIO
TITLE "Probably"
PERFORMER "Fool's Garden"
INDEX 00 03:22:55
FILE "09 - Fool's Garden - Probably.wav" WAVE
INDEX 01 00:00:00
TRACK 10 AUDIO
TITLE "Sie liebt dich / She Loves You"
PERFORMER "Worlds Apart"
INDEX 00 02:49:32
FILE "10 - Worlds Apart - Sie liebt dich - She Loves You.wav" WAVE
INDEX 01 00:00:00
TRACK 11 AUDIO
TITLE "Shadows of the Night (Radio Version)"
PERFORMER "DJ Bobo"
INDEX 00 02:18:10
FILE "11 - DJ Bobo - Shadows of the Night (Radio Version).wav" WAVE
INDEX 01 00:00:00
TRACK 12 AUDIO
TITLE "Children Need a Helping Hand (Radio Version)"
PERFORMER "Hand in Hand for Children e.V."
INDEX 00 03:58:30
FILE "12 - Hand in Hand for Children - Children Need a Helping Hand.wav" WAVE
INDEX 01 00:00:00
TRACK 13 AUDIO
TITLE "The Winner Takes It All (Radio Edit)"
PERFORMER "E-Rotic"
INDEX 00 04:04:72
FILE "13 - E-Rotic - The Winner Takes It All (Radio Edit).wav" WAVE
INDEX 01 00:00:00
FILE "14 - Just Friends - What Is Love (Radio Version).wav" WAVE
TRACK 14 AUDIO
TITLE "What Is Love (Radio Version)"
PERFORMER "Just Friends"
INDEX 01 00:00:00
TRACK 15 AUDIO
TITLE "Gib mir noch Zeit (Zeitloser Radio Mix)"
PERFORMER "Blьmchen"
INDEX 00 03:44:45
FILE "15 - Bluemchen - Gib mir noch Zeit (Zeitloser Radio Mix).wav" WAVE
INDEX 01 00:00:00
TRACK 16 AUDIO
TITLE "Babe (Radio Mix)"
PERFORMER "Caught in the Act"
INDEX 00 03:46:27
FILE "16 - Caught in the Act - Babe (Radio Mix).wav" WAVE
INDEX 01 00:00:00
TRACK 17 AUDIO
TITLE "Let Me Show You the Way (Single Edit / Original Mix)"
PERFORMER "The Boyz"
INDEX 00 04:26:50
FILE "17 - The Boyz - Let Me Show You the Way (Single Edit - Original Mix).wav" WAVE
INDEX 01 00:00:00
TRACK 18 AUDIO
TITLE "It's X-Mas"
PERFORMER "Robby Musenbichler"
INDEX 00 03:50:22
FILE "18 - Robby Musenbichler - It's X-Mas.wav" WAVE
INDEX 01 00:00:00
-(Soundtrack) Комиссар Рекс / Kommissar Rex: Vol. 1 (by Various Artists) - 1994, FLAC (tracks+.cue), lossless
(Soundtrack) Комиссар Рекс / Kommissar Rex: Vol. 2 (by Various Artists) - 1995 (1994), FLAC (tracks+.cue), lossless
(Soundtrack) Комиссар Рекс / Kommissar Rex: Vol. 3 (by Various Artists) - 1996 (1994), FLAC (tracks+.cue), lossless
(Soundtrack) Комиссар Рекс / Kommissar Rex (Vol.1 & Vol.2) - 1994, 1995, MP3 (tracks), 320 kbps
(Soundtrack) Комиссар Рекс / Kommissar Rex (Vol.3 & Vol.4) - 1996, 1997, MP3 (tracks), 320 kbps- -
[Профиль] [ЛС]
Показать сообщения:    
Ответить на тему

Текущее время: 22-Июл 23:43

Часовой пояс: UTC + 3



Вы не можете начинать темы
Вы не можете отвечать на сообщения
Вы не можете редактировать свои сообщения
Вы не можете удалять свои сообщения
Вы не можете голосовать в опросах
Вы не можете прикреплять файлы к сообщениям
Вы не можете скачивать файлы