Сегодня идет свободное скачивание без начисления Download

Белый клык / Croc-Blanc (2018) WEB-DL [H.264/1080p-LQ] [EN / RU, EN Sub]

Ответить на тему
 
Автор Сообщение

Bot ®

Стаж: 4 года 9 месяцев

Сообщений: 13

Создавать темы 11-Июл-2018 22:16

[Цитировать]

Белый клык / Croc-Blanc (2018) WEB-DL [H.264/1080p-LQ] [EN / RU, EN Sub]- Производство: Франция, Люксембург, США / Superprod, Bidibul Productions, Big Beach Films
Жанр: Мультфильм, Приключения
Режиссер: Александр Эспигарес
Персонажи: Ник Офферман, Рашида Джонс, Пол Джаматти, Флула Борг, Стив Гликман, Доминик Пинон, Виржини Эфира, Эдди Спирс, Рафаэль Персонас, Дэвид Боат ...
Описание:
В основу мультфильма легла классическая повесть американского писателя Джека Лондона, которая рассказывает о приключениях Белого клыка, полусобаки-полуволка, чьи отец, братья и сестры погибли, а их с матерью приручил индеец. Познакомившись с людьми и собаками, Белый клык вскоре понимает, что здесь ему придется сражаться за выживание так же яростно, как и в дикой природе.

Дата мировой премьеры: 21 января 2018, ...
Дата российской премьеры: -
Продолжительность: 01:27:34
Качество видео: WEB-DL 1080p (Netflix)
Перевод: Отсутствует
Язык озвучки: Английский
Субтитры: Русские, английские, испанские, французские, иврит, индонезийские, японские, корейские, голландские, португальские, тайские, китайские
Видео: AVC, 1920x1080 (16:9), 24.000 fps, 3 650 Kbps (0.073 bit/pixel)
Аудио: AC-3, 48.0 KHz, 6 ch, 384 Kbps, CBR (English)
Mediainfo:
General
Complete name : White.Fang.2018.1080p.NF.WEB-DL.DD5.1.H.264.mkv
Format : Matroska
Format version : Version 4 / Version 2
File size : 2.46 GiB
Duration : 1 h 27 min
Overall bit rate mode : Variable
Overall bit rate : 4 014 kb/s
Encoded date : UTC 2018-07-07 15:56:11
Writing application : mkvmerge v24.0.0 ('Beyond The Pale') 64-bit
Writing library : libebml v1.3.6 + libmatroska v1.4.9
Video
ID : 1
Format : AVC
Format/Info : Advanced Video Codec
Format profile : Main@L4
Format settings : CABAC / 3 Ref Frames
Format settings, CABAC : Yes
Format settings, ReFrames : 3 frames
Codec ID : V_MPEG4/ISO/AVC
Duration : 1 h 27 min
Bit rate mode : Variable
Bit rate : 3 650 kb/s
Maximum bit rate : 5 475 kb/s
Width : 1 920 pixels
Height : 1 080 pixels
Display aspect ratio : 16:9
Frame rate mode : Constant
Frame rate : 24.000 FPS
Color space : YUV
Chroma subsampling : 4:2:0
Bit depth : 8 bits
Scan type : Progressive
Bits/(Pixel*Frame) : 0.073
Stream size : 2.22 GiB (90%)
Writing library : x264 core 148 r2715 7e75228
Encoding settings : cabac=1 / ref=3 / deblock=1:0:0 / analyse=0x1:0x111 / me=umh / subme=10 / psy=1 / psy_rd=1.00:0.00 / mixed_ref=1 / me_range=24 / chroma_me=1 / trellis=2 / 8x8dct=0 / cqm=0 / deadzone=21,11 / fast_pskip=1 / chroma_qp_offset=-2 / threads=8 / lookahead_threads=1 / sliced_threads=0 / nr=0 / decimate=1 / interlaced=0 / bluray_compat=0 / stitchable=1 / constrained_intra=0 / bframes=2 / b_pyramid=0 / b_adapt=2 / b_bias=0 / direct=3 / weightb=1 / open_gop=0 / weightp=2 / keyint=48 / keyint_min=25 / scenecut=0 / intra_refresh=0 / rc_lookahead=48 / rc=2pass / mbtree=1 / bitrate=3650 / ratetol=1.0 / qcomp=0.50 / qpmin=6 / qpmax=51 / qpstep=4 / cplxblur=20.0 / qblur=0.5 / vbv_maxrate=5475 / vbv_bufsize=7300 / nal_hrd=vbr / filler=0 / ip_ratio=1.40 / aq=1:1.00
Default : Yes
Forced : No
Audio
ID : 2
Format : AC-3
Format/Info : Audio Coding 3
Codec ID : A_AC3
Duration : 1 h 27 min
Bit rate mode : Constant
Bit rate : 384 kb/s
Channel(s) : 6 channels
Channel positions : Front: L C R, Side: L R, LFE
Sampling rate : 48.0 kHz
Frame rate : 31.250 FPS (1536 SPF)
Bit depth : 16 bits
Compression mode : Lossy
Stream size : 241 MiB (10%)
Language : English
Service kind : Complete Main
Default : Yes
Forced : No
Text #1
ID : 3
Format : UTF-8
Codec ID : S_TEXT/UTF8
Codec ID/Info : UTF-8 Plain Text
Duration : 1 h 24 min
Bit rate : 35 b/s
Count of elements : 859
Stream size : 22.2 KiB (0%)
Title : SDH
Language : English
Default : No
Forced : No
Text #2
ID : 4
Format : UTF-8
Codec ID : S_TEXT/UTF8
Codec ID/Info : UTF-8 Plain Text
Duration : 1 h 25 min
Bit rate : 21 b/s
Count of elements : 551
Stream size : 13.6 KiB (0%)
Language : Spanish
Default : No
Forced : No
Text #3
ID : 5
Format : UTF-8
Codec ID : S_TEXT/UTF8
Codec ID/Info : UTF-8 Plain Text
Duration : 1 h 23 min
Bit rate : 32 b/s
Count of elements : 534
Stream size : 19.5 KiB (0%)
Language : French
Default : No
Forced : No
Text #4
ID : 6
Format : UTF-8
Codec ID : S_TEXT/UTF8
Codec ID/Info : UTF-8 Plain Text
Duration : 1 h 25 min
Bit rate : 42 b/s
Count of elements : 534
Stream size : 26.4 KiB (0%)
Language : Hebrew
Default : No
Forced : No
Text #5
ID : 7
Format : UTF-8
Codec ID : S_TEXT/UTF8
Codec ID/Info : UTF-8 Plain Text
Duration : 1 h 23 min
Bit rate : 28 b/s
Count of elements : 525
Stream size : 17.6 KiB (0%)
Language : Indonesian
Default : No
Forced : No
Text #6
ID : 8
Format : UTF-8
Codec ID : S_TEXT/UTF8
Codec ID/Info : UTF-8 Plain Text
Duration : 1 h 25 min
Bit rate : 21 b/s
Count of elements : 578
Stream size : 13.3 KiB (0%)
Language : Japanese
Default : No
Forced : No
Text #7
ID : 9
Format : UTF-8
Codec ID : S_TEXT/UTF8
Codec ID/Info : UTF-8 Plain Text
Duration : 1 h 25 min
Bit rate : 28 b/s
Count of elements : 554
Stream size : 17.8 KiB (0%)
Language : Korean
Default : No
Forced : No
Text #8
ID : 10
Format : UTF-8
Codec ID : S_TEXT/UTF8
Codec ID/Info : UTF-8 Plain Text
Duration : 1 h 23 min
Bit rate : 22 b/s
Count of elements : 496
Stream size : 13.7 KiB (0%)
Language : Dutch
Default : No
Forced : No
Text #9
ID : 11
Format : UTF-8
Codec ID : S_TEXT/UTF8
Codec ID/Info : UTF-8 Plain Text
Duration : 1 h 25 min
Bit rate : 21 b/s
Count of elements : 540
Stream size : 13.4 KiB (0%)
Title : Brazilian
Language : Portuguese
Default : No
Forced : No
Text #10
ID : 12
Format : UTF-8
Codec ID : S_TEXT/UTF8
Codec ID/Info : UTF-8 Plain Text
Duration : 1 h 23 min
Bit rate : 43 b/s
Count of elements : 545
Stream size : 26.6 KiB (0%)
Language : Russian
Default : No
Forced : No
Text #11
ID : 13
Format : UTF-8
Codec ID : S_TEXT/UTF8
Codec ID/Info : UTF-8 Plain Text
Duration : 1 h 24 min
Bit rate : 62 b/s
Count of elements : 597
Stream size : 38.4 KiB (0%)
Language : Thai
Default : No
Forced : No
Text #12
ID : 14
Format : UTF-8
Codec ID : S_TEXT/UTF8
Codec ID/Info : UTF-8 Plain Text
Duration : 1 h 23 min
Bit rate : 21 b/s
Count of elements : 551
Stream size : 13.1 KiB (0%)
Title : Simplified
Language : Chinese
Default : No
Forced : No
Text #13
ID : 15
Format : UTF-8
Codec ID : S_TEXT/UTF8
Codec ID/Info : UTF-8 Plain Text
Duration : 1 h 25 min
Bit rate : 24 b/s
Count of elements : 552
Stream size : 15.2 KiB (0%)
Title : Traditional
Language : Chinese
Default : No
Forced : No
Скриншоты:
Дополнительные скриншоты:
Все одноименные релизы в КлубеВремя раздачи: 24/7 (круглосуточно) (до появления первых 3-5 скачавших)
[Профиль] [ЛС]
Показать сообщения:    
Ответить на тему

Текущее время: 22-Июл 23:41

Часовой пояс: UTC + 3



Вы не можете начинать темы
Вы не можете отвечать на сообщения
Вы не можете редактировать свои сообщения
Вы не можете удалять свои сообщения
Вы не можете голосовать в опросах
Вы не можете прикреплять файлы к сообщениям
Вы не можете скачивать файлы