Сегодня идет свободное скачивание без начисления Download

(Fusion / Jazz-Funk / Soul Jazz / Pop) Акага - Защо (1994) - Когато Виждаш (1996) - 9 (2001) - 93-08 (2008), FLAC (tracks+.cue), lossless [перераздача 19.09.09]

Ответить на тему
 
Автор Сообщение

Bot ®

Стаж: 3 года 7 месяцев

Сообщений: 5

Создавать темы 12-Июл-2018 00:30

[Цитировать]

Страна исполнителя: Bulgaria
Производитель диска: Bulgaria
Аудио кодек: FLAC
Тип рипа: tracks+.cue
Битрейт аудио: lossless
Одна из самых популярных болгарских групп – "Акага" - была создана в 1992 году студентами Национальной музыкальной академии. Музыканты группы считаются основателями современного болгарского саунда, представляющего уникальную комбинацию фьюжн-джаза, фанка, фольклорной музыки, регги, соул и даже музыки в стиле хип-хоп. В течение нескольких лет группа выступала преимущественно в Скандинавии. Тогда же сформировался и состав ансамбля: Краси Куртев (фронтмэн, бас-гитара), Георги Велев (труба), Иво Казасов (труба), Краси Кирилов-Джоджо (тромбон), Калин Петров (клавишные), Петр Главанов (гитара) и Димитр Димитров - дынди (барабаны). В 2007 году "Акага" вернулась в Болгарию. Не прекращая активную концертную деятельность, музыканты группы реализовали ряд успешных совместных проектов с известными болгарскими исполнителями, среди которых Граф, Дичо, Тома, Спенс.
Официален уеб адрес
- Акага - Защо
Жанр: Fusion / Jazz-Funk
Год выпуска диска: 1994
Продолжительность: 50:35
Трэклист:
01. You And Me - 4.48 (Krassimir Kurtev)
02. Sting - 6.40 (Yassen Velchev)
03. Krivoto - 6.38 (Akaga)
04. Take This - 6.12 (Yassen Velchev)
05. Airport No.3 - 3.22 (Yassen Velchev)
06. Day Without You - 5.03 (Krassimir Kurtev)
07. Akaga's Mood - 6.22 (Marin Panev)
08. Pravoto (Live) - 5.44 (Akaga)
09. Why (Live) - 5.13 (Yassen Velchev)
Акага:
Марин Панев - алт саксофон, вокали
Ясен Велчев - клавишни
Кристиян Александров - ударни
Красимир Куртев - баскитара, водещи вокали
Огнян Весков - китари
Калин Вельов - перкусии
Иво Казасов - тромпет
Георги Велев - тромпет
Красимир Кирилов - тромбон
отчет EAC
EAC extraction logfile from 25. July 2007, 22:19 for CD
Akaga / Why
Used drive : HL-DT-STDVDRAM GSA-4167B Adapter: 0 ID: 0
Read mode : Secure with NO C2, accurate stream, disable cache
Read offset correction : 667
Overread into Lead-In and Lead-Out : No
Used output format : c:\Program Files\FLAC\flac.exe (User Defined Encoder)
128 kBit/s
Additional command line options : -8 -V -T "ARTIST=%a" -T "TITLE=%t" -T "ALBUM=%g" -T "DATE=%y" -T "TRACKNUMBER=%n" -T "GENRE=%m" -T "COMMENT=EAC Flac 1.1.4 -8" %s
Other options :
Fill up missing offset samples with silence : Yes
Delete leading and trailing silent blocks : No
Native Win32 interface for Win NT & 2000
Track 1
Filename e:\Akaga - Why (1994) [FLAC]\01 - You And Me.wav
Pre-gap length 0:00:02.00
Peak level 79.8 %
Track quality 100.0 %
Test CRC 25FC4ACA
Copy CRC 25FC4ACA
Copy OK
Track 2
Filename e:\Akaga - Why (1994) [FLAC]\02 - Sting.wav
Pre-gap length 0:00:01.29
Peak level 78.4 %
Track quality 99.9 %
Test CRC E1168BAA
Copy CRC E1168BAA
Copy OK
Track 3
Filename e:\Akaga - Why (1994) [FLAC]\03 - Krivoto.wav
Pre-gap length 0:00:04.20
Peak level 77.1 %
Track quality 100.0 %
Test CRC F5F89151
Copy CRC F5F89151
Copy OK
Track 4
Filename e:\Akaga - Why (1994) [FLAC]\04 - Take This.wav
Pre-gap length 0:00:02.66
Peak level 79.1 %
Track quality 100.0 %
Test CRC C81F9E66
Copy CRC C81F9E66
Copy OK
Track 5
Filename e:\Akaga - Why (1994) [FLAC]\05 - Airport No.3.wav
Pre-gap length 0:00:06.86
Peak level 79.5 %
Track quality 100.0 %
Test CRC F6FBC9A2
Copy CRC F6FBC9A2
Copy OK
Track 6
Filename e:\Akaga - Why (1994) [FLAC]\06 - Day Without You.wav
Pre-gap length 0:00:02.96
Peak level 81.9 %
Track quality 100.0 %
Test CRC 5939C1BD
Copy CRC 5939C1BD
Copy OK
Track 7
Filename e:\Akaga - Why (1994) [FLAC]\07 - Akaga's Mood.wav
Pre-gap length 0:00:03.22
Peak level 79.5 %
Track quality 100.0 %
Test CRC C69EA0B3
Copy CRC C69EA0B3
Copy OK
Track 8
Filename e:\Akaga - Why (1994) [FLAC]\08 - Pravoto (Live).wav
Pre-gap length 0:00:05.89
Peak level 79.3 %
Track quality 100.0 %
Test CRC 180B5776
Copy CRC 180B5776
Copy OK
Track 9
Filename e:\Akaga - Why (1994) [FLAC]\09 - Why (Live).wav
Pre-gap length 0:00:03.20
Peak level 77.3 %
Track quality 100.0 %
Test CRC 763ACB35
Copy CRC 763ACB35
Copy OK
No errors occured
End of status report
CUE Sheet
REM GENRE Fusion
REM DATE 1994
REM DISCID 8F0BDC09
REM COMMENT "ExactAudioCopy v0.95b4"
PERFORMER "Akaga"
TITLE "Why"
FILE "01 - You And Me.wav" WAVE
TRACK 01 AUDIO
TITLE "You And Me"
PERFORMER "Akaga"
INDEX 01 00:00:00
TRACK 02 AUDIO
TITLE "Sting"
PERFORMER "Akaga"
INDEX 00 04:48:00
FILE "02 - Sting.wav" WAVE
INDEX 01 00:00:00
TRACK 03 AUDIO
TITLE "Krivoto"
PERFORMER "Akaga"
INDEX 00 06:40:65
FILE "03 - Krivoto.wav" WAVE
INDEX 01 00:00:00
TRACK 04 AUDIO
TITLE "Take This"
PERFORMER "Akaga"
INDEX 00 06:35:48
FILE "04 - Take This.wav" WAVE
INDEX 01 00:00:00
TRACK 05 AUDIO
TITLE "Airport No.3"
PERFORMER "Akaga"
INDEX 00 06:12:17
FILE "05 - Airport No.3.wav" WAVE
INDEX 01 00:00:00
TRACK 06 AUDIO
TITLE "Day Without You"
PERFORMER "Akaga"
INDEX 00 03:22:13
FILE "06 - Day Without You.wav" WAVE
INDEX 01 00:00:00
TRACK 07 AUDIO
TITLE "Akaga's Mood"
PERFORMER "Akaga"
INDEX 00 05:05:38
FILE "07 - Akaga's Mood.wav" WAVE
INDEX 01 00:00:00
TRACK 08 AUDIO
TITLE "Pravoto (Live)"
PERFORMER "Akaga"
INDEX 00 06:22:48
FILE "08 - Pravoto (Live).wav" WAVE
INDEX 01 00:00:00
TRACK 09 AUDIO
TITLE "Why (Live)"
PERFORMER "Akaga"
INDEX 00 05:43:48
FILE "09 - Why (Live).wav" WAVE
INDEX 01 00:00:00
Акага - Когато Виждаш
Жанр: Jazz-Funk / Soul Jazz
Год выпуска диска: 1996
Продолжительность: 58:41
Трэклист:
01. Някой ден - 3.53
02. Не чакай - 4.35
03. Голи сенки - 6.04
04. Cuba libre - 3.53
05. Proud Mary - 6.00
06. Трафик - 3.55
07. Бягство - 5.11
08. Akaga's funky - 4.15
09. Изминато разстояние в източна посока - 4.30
10. Виж - 6.03
Акага:
Марин Панев - алт саксофон, вокал
Ясен Велчев - клавишни, беквокал
Емил Тасев - барабани
Красимир Куртев - баскитара, вокал
Огнян Весков - китари, беквокал
Калин Вельов - перкусии
Иво Казасов - тромпет, беквокал
Георги Велев - тромпет, флюгелхорн, беквокал
Красимир Кирилов (Джоджо) - тромбон, беквокал
отчет EAC
EAC extraction logfile from 15. November 2007, 0:19 for CD
Akaga / Kogato Vizdash
Used drive : HL-DT-STDVDRAM GSA-4167B Adapter: 0 ID: 0
Read mode : Secure with NO C2, accurate stream, NO disable cache
Read offset correction : 667
Overread into Lead-In and Lead-Out : No
Used output format : c:\Program Files\FLAC\flac.exe (User Defined Encoder)
128 kBit/s
Additional command line options : -8 -V -T "ARTIST=%a" -T "TITLE=%t" -T "ALBUM=%g" -T "DATE=%y" -T "TRACKNUMBER=%n" -T "GENRE=%m" -T "COMMENT=EAC Flac 1.1.4 -8" %s
Other options :
Fill up missing offset samples with silence : Yes
Delete leading and trailing silent blocks : No
Native Win32 interface for Win NT & 2000
Track 1
Filename f:\Akaga - Kogato Vizdash (1996) [FLAC]\01 - Niakoi Den.wav
Pre-gap length 0:00:03.00
Peak level 99.8 %
Track quality 100.0 %
Test CRC D899A38A
Copy CRC D899A38A
Copy OK
Track 2
Filename f:\Akaga - Kogato Vizdash (1996) [FLAC]\02 - Ne Chakai.wav
Pre-gap length 0:00:02.46
Peak level 97.3 %
Track quality 99.9 %
Test CRC 83903431
Copy CRC 83903431
Copy OK
Track 3
Filename f:\Akaga - Kogato Vizdash (1996) [FLAC]\03 - Goli Senki.wav
Pre-gap length 0:00:02.46
Peak level 100.0 %
Track quality 99.8 %
Test CRC DFF94E69
Copy CRC DFF94E69
Copy OK
Track 4
Filename f:\Akaga - Kogato Vizdash (1996) [FLAC]\04 - Cuba Libre.wav
Pre-gap length 0:00:02.46
Peak level 100.0 %
Track quality 99.8 %
Test CRC E762AD32
Copy CRC E762AD32
Copy OK
Track 5
Filename f:\Akaga - Kogato Vizdash (1996) [FLAC]\05 - Proud Mary.wav
Pre-gap length 0:00:02.46
Peak level 89.1 %
Track quality 99.9 %
Test CRC 5075A4E6
Copy CRC 5075A4E6
Copy OK
Track 6
Filename f:\Akaga - Kogato Vizdash (1996) [FLAC]\06 - Traffic.wav
Pre-gap length 0:00:02.46
Peak level 89.1 %
Track quality 100.0 %
Test CRC 407DA7A1
Copy CRC 407DA7A1
Copy OK
Track 7
Filename f:\Akaga - Kogato Vizdash (1996) [FLAC]\07 - Biagstvo.wav
Pre-gap length 0:00:02.46
Peak level 89.1 %
Track quality 100.0 %
Test CRC 7B30AEFC
Copy CRC 7B30AEFC
Copy OK
Track 8
Filename f:\Akaga - Kogato Vizdash (1996) [FLAC]\08 - Akaga's Funky.wav
Pre-gap length 0:00:02.46
Peak level 89.1 %
Track quality 100.0 %
Test CRC C668EDB4
Copy CRC C668EDB4
Copy OK
Track 9
Filename f:\Akaga - Kogato Vizdash (1996) [FLAC]\09 - Izminato raztoianie v Iztochna Posoka.wav
Pre-gap length 0:00:02.46
Peak level 89.1 %
Track quality 100.0 %
Test CRC 30F54506
Copy CRC 30F54506
Copy OK
Track 10
Filename f:\Akaga - Kogato Vizdash (1996) [FLAC]\10 - Vizh,Look.wav
Pre-gap length 0:00:02.46
Peak level 89.1 %
Track quality 100.0 %
Test CRC 3267A79A
Copy CRC 3267A79A
Copy OK
No errors occured
End of status report
CUE Sheet
REM GENRE Jazz+Funk
REM DATE 1996
REM DISCID 870B690A
REM COMMENT "ExactAudioCopy v0.95b4"
PERFORMER "Akaga"
TITLE "Kogato Vizdash"
FILE "Akaga - Kogato Vizdash (1996) [FLAC]\01 - Niakoi Den.wav" WAVE
TRACK 01 AUDIO
TITLE "Niakoi Den"
PERFORMER "Akaga"
PREGAP 00:01:00
INDEX 01 00:00:00
TRACK 02 AUDIO
TITLE "Ne Chakai"
PERFORMER "Akaga"
INDEX 00 03:53:15
FILE "Akaga - Kogato Vizdash (1996) [FLAC]\02 - Ne Chakai.wav" WAVE
INDEX 01 00:00:00
TRACK 03 AUDIO
TITLE "Goli Senki"
PERFORMER "Akaga"
INDEX 00 04:35:69
FILE "Akaga - Kogato Vizdash (1996) [FLAC]\03 - Goli Senki.wav" WAVE
INDEX 01 00:00:00
TRACK 04 AUDIO
TITLE "Cuba Libre"
PERFORMER "Akaga"
INDEX 00 05:57:03
FILE "Akaga - Kogato Vizdash (1996) [FLAC]\04 - Cuba Libre.wav" WAVE
INDEX 01 00:00:00
TRACK 05 AUDIO
TITLE "Proud Mary"
PERFORMER "Akaga"
INDEX 00 03:53:63
FILE "Akaga - Kogato Vizdash (1996) [FLAC]\05 - Proud Mary.wav" WAVE
INDEX 01 00:00:00
TRACK 06 AUDIO
TITLE "Traffic"
PERFORMER "Akaga"
INDEX 00 06:00:34
FILE "Akaga - Kogato Vizdash (1996) [FLAC]\06 - Traffic.wav" WAVE
INDEX 01 00:00:00
TRACK 07 AUDIO
TITLE "Biagstvo"
PERFORMER "Akaga"
INDEX 00 03:55:10
FILE "Akaga - Kogato Vizdash (1996) [FLAC]\07 - Biagstvo.wav" WAVE
INDEX 01 00:00:00
TRACK 08 AUDIO
TITLE "Akaga's Funky"
PERFORMER "Akaga"
INDEX 00 05:12:33
FILE "Akaga - Kogato Vizdash (1996) [FLAC]\08 - Akaga's Funky.wav" WAVE
INDEX 01 00:00:00
TRACK 09 AUDIO
TITLE "Izminato raztoianie v Iztochna Posoka"
PERFORMER "Akaga"
INDEX 00 04:16:16
FILE "Akaga - Kogato Vizdash (1996) [FLAC]\09 - Izminato raztoianie v Iztochna Posoka.wav" WAVE
INDEX 01 00:00:00
TRACK 10 AUDIO
TITLE "Vizh/Look"
PERFORMER "Akaga"
INDEX 00 04:30:07
FILE "Akaga - Kogato Vizdash (1996) [FLAC]\10 - Vizh,Look.wav" WAVE
INDEX 01 00:00:00
Акага - 9
Жанр: Jazz-Funk / soul jazz / Pop
Год выпуска диска: 2001
Продолжительность: 51:53
Трэклист:
1. Intro (Get A Funky) - 5.44
2. Не казвай нищо днес - 4.50
3. Има нема - 5.00
4. Вали / ? ! - 9.07
5. Не чакай - 4.27
6. Тамбокту - 6.16
7. Варвари - 7.20
8. Cuba libre - 3.53
9. Без име - 4.52
Мултимедия:
01. Ая
02. Cuba libre (remix)
03. Вали
Акага:
Марин Панев - саксофон, вокал
Вихрен Урумов - клавишни, вокал
Александър Василев - барабани
Красимир Куртев - бас, вокал
Калин Вельов - перкусии
Иво Казасов - тромпет, вокал
Георги Велев - тромпет, вокал
Красимир Кирилов - Джоджо - тромбон, вокал
отчет EAC
EAC extraction logfile from 24. November 2007, 0:29 for CD
Akaga / 9
Used drive : HL-DT-STDVDRAM GSA-4167B Adapter: 0 ID: 0
Read mode : Secure with NO C2, accurate stream, NO disable cache
Read offset correction : 667
Overread into Lead-In and Lead-Out : No
Used output format : c:\Program Files\FLAC\flac.exe (User Defined Encoder)
128 kBit/s
Additional command line options : -8 -V -T "ARTIST=%a" -T "TITLE=%t" -T "ALBUM=%g" -T "DATE=%y" -T "TRACKNUMBER=%n" -T "GENRE=%m" -T "COMMENT=EAC Flac 1.2.1 -8" %s
Other options :
Fill up missing offset samples with silence : Yes
Delete leading and trailing silent blocks : No
Native Win32 interface for Win NT & 2000
Track 1
Filename f:\Akaga - 9 (2001) [FLAC]\01 - Intro (Get A Funky).wav
Pre-gap length 0:00:02.00
Peak level 96.6 %
Track quality 100.0 %
Test CRC 0F9122A3
Copy CRC 0F9122A3
Copy OK
Track 2
Filename f:\Akaga - 9 (2001) [FLAC]\02 - Ne Kazvai Nishto Dnes.wav
Pre-gap length 0:00:02.00
Peak level 96.6 %
Track quality 99.9 %
Test CRC 3A16365E
Copy CRC 3A16365E
Copy OK
Track 3
Filename f:\Akaga - 9 (2001) [FLAC]\03 - Ima Nema.wav
Pre-gap length 0:00:02.00
Peak level 96.6 %
Track quality 100.0 %
Test CRC F99060C4
Copy CRC F99060C4
Copy OK
Track 4
Filename f:\Akaga - 9 (2001) [FLAC]\04 - Vali, ! -.wav
Pre-gap length 0:00:02.00
Peak level 96.6 %
Track quality 100.0 %
Test CRC C6C78792
Copy CRC C6C78792
Copy OK
Track 5
Filename f:\Akaga - 9 (2001) [FLAC]\05 - Ne Chakai.wav
Pre-gap length 0:00:02.00
Peak level 96.6 %
Track quality 100.0 %
Test CRC 4BAA43DA
Copy CRC 4BAA43DA
Copy OK
Track 6
Filename f:\Akaga - 9 (2001) [FLAC]\06 - Tamboktu.wav
Pre-gap length 0:00:02.00
Peak level 96.6 %
Track quality 100.0 %
Test CRC BABBFE86
Copy CRC BABBFE86
Copy OK
Track 7
Filename f:\Akaga - 9 (2001) [FLAC]\07 - Varvari.wav
Pre-gap length 0:00:02.00
Peak level 96.6 %
Track quality 100.0 %
Test CRC 3EDD78D3
Copy CRC 3EDD78D3
Copy OK
Track 8
Filename f:\Akaga - 9 (2001) [FLAC]\08 - Cuba Libre.wav
Pre-gap length 0:00:02.00
Peak level 96.6 %
Track quality 100.0 %
Test CRC C6ECA040
Copy CRC C6ECA040
Copy OK
Track 9
Filename f:\Akaga - 9 (2001) [FLAC]\09 - Bez Ime.wav
Pre-gap length 0:00:02.00
Peak level 96.6 %
Track quality 100.0 %
Test CRC 0A69887B
Copy CRC 0A69887B
Copy OK
No errors occured
End of status report
CUE Sheet
REM GENRE Jazz+Funk
REM DATE 2001
REM DISCID 9611040A
REM COMMENT "ExactAudioCopy v0.95b3"
PERFORMER "Akaga"
TITLE "9"
FILE "Akaga - 9 (2001) [FLAC]\01 - Intro (Get A Funky).wav" WAVE
TRACK 01 AUDIO
TITLE "Intro (Get A Funky)"
PERFORMER "Akaga"
INDEX 01 00:00:00
TRACK 02 AUDIO
TITLE "Ne Kazvai Nishto Dnes"
PERFORMER "Akaga"
INDEX 00 05:45:31
FILE "Akaga - 9 (2001) [FLAC]\02 - Ne Kazvai Nishto Dnes.wav" WAVE
INDEX 01 00:00:00
TRACK 03 AUDIO
TITLE "Ima Nema"
PERFORMER "Akaga"
INDEX 00 04:51:40
FILE "Akaga - 9 (2001) [FLAC]\03 - Ima Nema.wav" WAVE
INDEX 01 00:00:00
TRACK 04 AUDIO
TITLE "Vali, ? ! -"
PERFORMER "Akaga"
INDEX 00 05:01:41
FILE "Akaga - 9 (2001) [FLAC]\04 - Vali, ! -.wav" WAVE
INDEX 01 00:00:00
TRACK 05 AUDIO
TITLE "Ne Chakai"
PERFORMER "Akaga"
INDEX 00 09:05:70
FILE "Akaga - 9 (2001) [FLAC]\05 - Ne Chakai.wav" WAVE
INDEX 01 00:00:00
TRACK 06 AUDIO
TITLE "Tamboktu"
PERFORMER "Akaga"
INDEX 00 04:28:06
FILE "Akaga - 9 (2001) [FLAC]\06 - Tamboktu.wav" WAVE
INDEX 01 00:00:00
TRACK 07 AUDIO
TITLE "Varvari"
PERFORMER "Akaga"
INDEX 00 06:17:51
FILE "Akaga - 9 (2001) [FLAC]\07 - Varvari.wav" WAVE
INDEX 01 00:00:00
TRACK 08 AUDIO
TITLE "Cuba Libre"
PERFORMER "Akaga"
INDEX 00 07:20:17
FILE "Akaga - 9 (2001) [FLAC]\08 - Cuba Libre.wav" WAVE
INDEX 01 00:00:00
TRACK 09 AUDIO
TITLE "Bez Ime"
PERFORMER "Akaga"
INDEX 00 03:54:53
FILE "Akaga - 9 (2001) [FLAC]\09 - Bez Ime.wav" WAVE
INDEX 01 00:00:00
Акага - 1993-2008
Жанр: Jazz-Funk / Soul jazz / Pop
Год выпуска диска: 2008
Продолжительность: 79:01
Трэклист:
1. Един ден - 3.31
2. София - Акага и Спенс - 3.33
3. Cuba Libre - 4.13
4. Пътувам - 3.58
5. Jazz Is a Teacher - 5.01
6. Disco Party - Акага и Графа - 3.52
7. Летище 2008 - 3.22
8. Ден без ден - 5.03
9. Get a Funky - 5.03
10. За малко остани - Акага и Любо - 4.03
11. Вали - 4.52
12. Късно лято - 3.40
13. Чанга-Ринга - 3.08
14. You & Me - 4.48
15. Не чакай - 4.27
16. Сделката - 3.10
17. Без име - 4.52
Bonus tracks:
18. Повярвай - Съучениците (Хилда Казасян & Акага) - 4.19
19. Сам - Акага & Тома Здравков - 3.35
Акага:
Краси Куртев - фронтмен, баскитара
Георги Велев - тромпет
Иво Казасов - тромпет
Красимир Кирилов-Джоджо - тромбон
Калин Петров - клавир
Петър Главанов - китара
Димитър Димитров-Дънди - барабани
отчет EAC
Exact Audio Copy V0.99 prebeta 5 from 4. May 2009
Отчет на EAC за извличане, извършено на 13. Септември 2009, 16:28
Akaga / 1993-2008
Използвано устройство : HL-DT-STDVDRAM GSA-4167B Adapter: 2 ID: 0
Режим на четене : Надежден
Използване на точен поток : Да
Изключено аудио кеширане : Да
Използване на C2 показалци : Не
Офсет корекция при четене : 667
Препрочитане на секторите Lead-In и Lead-Out : Не
Запълване на липсващи офсет семпли с тишина : Да
Изтриване на начални и крайни блокове тишина : Не
Използване на нулеви семпли при CRC изчисления : Да
Използван интерфейс : Вграден Win32 интерфейс за Win NT & 2000
Управление на празнини : Прикачени към предишния трак
Използван изходен формат : Енкодер Дефиниран от Потребителя
Избран битрейт : 1024 kBit/s
Качество : Високо
Добави ID3 таг : Не
Конзолен компресор : C:\Program Files\Exact Audio Copy\Flac\flac.exe
Допълнителни конзолни опции : -8 -V -T "ARTIST=%a" -T "TITLE=%t" -T "ALBUM=%g" -T "DATE=%y" -T "TRACKNUMBER=%n" -T "GENRE=%m" -T "COMMENT=EAC Flac 1.2.1b -8 XTR" %s
TOC на извлечения CD
Трак | Начало | Дължина | Начален сектор | Краен сектор
------------------------------------------------------------
1 | 0:00.00 | 3:33.68 | 0 | 16042
2 | 3:33.68 | 3:37.28 | 16043 | 32345
3 | 7:11.21 | 4:19.23 | 32346 | 51793
4 | 11:30.44 | 4:01.13 | 51794 | 69881
5 | 15:31.57 | 5:09.30 | 69882 | 93086
6 | 20:41.12 | 3:04.08 | 93087 | 106894
7 | 23:45.20 | 3:25.33 | 106895 | 122302
8 | 27:10.53 | 5:09.60 | 122303 | 145537
9 | 32:20.38 | 5:49.41 | 145538 | 171753
10 | 38:10.04 | 3:15.20 | 171754 | 186398
11 | 41:25.24 | 4:46.34 | 186399 | 207882
12 | 46:11.58 | 3:45.42 | 207883 | 224799
13 | 49:57.25 | 3:55.35 | 224800 | 242459
14 | 53:52.60 | 4:49.40 | 242460 | 264174
15 | 58:42.25 | 4:32.16 | 264175 | 284590
16 | 63:14.41 | 3:17.37 | 284591 | 299402
17 | 66:32.03 | 4:28.38 | 299403 | 319540
18 | 71:00.41 | 4:23.04 | 319541 | 339269
19 | 75:23.45 | 3:37.46 | 339270 | 355590
Трак 1
Име на файл H:\Музика\01 - Edin Den.wav
Дължина на предпразнина 0:00:02.00
Пиково ниво 98.8 %
Качество на трака 100.0 %
Тестван CRC 35E2F302
Копиран CRC 35E2F302
Тракът не е в базата данни на AccurateRip
Копиране OK
Трак 2
Име на файл H:\Музика\02 - Sofiq.wav
Дължина на предпразнина 0:00:02.00
Пиково ниво 98.8 %
Качество на трака 100.0 %
Тестван CRC B87799A3
Копиран CRC B87799A3
Тракът не е в базата данни на AccurateRip
Копиране OK
Трак 3
Име на файл H:\Музика\03 - Cuba Libre.wav
Дължина на предпразнина 0:00:02.00
Пиково ниво 98.8 %
Качество на трака 99.9 %
Тестван CRC C3F151AE
Копиран CRC C3F151AE
Тракът не е в базата данни на AccurateRip
Копиране OK
Трак 4
Име на файл H:\Музика\04 - Patuvam.wav
Дължина на предпразнина 0:00:02.00
Пиково ниво 97.7 %
Качество на трака 100.0 %
Тестван CRC 0E975134
Копиран CRC 0E975134
Тракът не е в базата данни на AccurateRip
Копиране OK
Трак 5
Име на файл H:\Музика\05 - Jazz Is A Teacher.wav
Дължина на предпразнина 0:00:02.00
Пиково ниво 98.8 %
Качество на трака 100.0 %
Тестван CRC 97468296
Копиран CRC 97468296
Тракът не е в базата данни на AccurateRip
Копиране OK
Трак 6
Име на файл H:\Музика\06 - Disco Party.wav
Дължина на предпразнина 0:00:02.00
Пиково ниво 98.8 %
Качество на трака 100.0 %
Тестван CRC 316CE102
Копиран CRC 316CE102
Тракът не е в базата данни на AccurateRip
Копиране OK
Трак 7
Име на файл H:\Музика\07 - Letishte.wav
Дължина на предпразнина 0:00:02.00
Пиково ниво 98.8 %
Качество на трака 100.0 %
Тестван CRC 19A85569
Копиран CRC 19A85569
Тракът не е в базата данни на AccurateRip
Копиране OK
Трак 8
Име на файл H:\Музика\08 - Den bez den !.wav
Дължина на предпразнина 0:00:02.00
Пиково ниво 98.8 %
Качество на трака 99.9 %
Тестван CRC 54D75FC7
Копиран CRC 54D75FC7
Тракът не е в базата данни на AccurateRip
Копиране OK
Трак 9
Име на файл H:\Музика\09 - Get a Funky.wav
Дължина на предпразнина 0:00:02.00
Пиково ниво 98.8 %
Качество на трака 100.0 %
Тестван CRC 5C063A20
Копиран CRC 5C063A20
Тракът не е в базата данни на AccurateRip
Копиране OK
Трак 10
Име на файл H:\Музика\10 - Za malko ostani.wav
Дължина на предпразнина 0:00:02.00
Пиково ниво 98.8 %
Качество на трака 99.9 %
Тестван CRC 8E8D8C21
Копиран CRC 8E8D8C21
Тракът не е в базата данни на AccurateRip
Копиране OK
Трак 11
Име на файл H:\Музика\11 - Vali.wav
Дължина на предпразнина 0:00:02.00
Пиково ниво 98.8 %
Качество на трака 100.0 %
Тестван CRC D35BF680
Копиран CRC D35BF680
Тракът не е в базата данни на AccurateRip
Копиране OK
Трак 12
Име на файл H:\Музика\12 - Kasno lqto.wav
Дължина на предпразнина 0:00:02.00
Пиково ниво 98.8 %
Качество на трака 100.0 %
Тестван CRC 4C3B5C0E
Копиран CRC 4C3B5C0E
Тракът не е в базата данни на AccurateRip
Копиране OK
Трак 13
Име на файл H:\Музика\13 - Changa-Ringa.wav
Дължина на предпразнина 0:00:02.00
Пиково ниво 98.8 %
Качество на трака 100.0 %
Тестван CRC 1B5F6165
Копиран CRC 1B5F6165
Тракът не е в базата данни на AccurateRip
Копиране OK
Трак 14
Име на файл H:\Музика\14 - You&Me.wav
Дължина на предпразнина 0:00:02.00
Пиково ниво 98.8 %
Качество на трака 99.9 %
Тестван CRC E9E1AB0F
Копиран CRC E9E1AB0F
Тракът не е в базата данни на AccurateRip
Копиране OK
Трак 15
Име на файл H:\Музика\15 - Ne chakaj.wav
Дължина на предпразнина 0:00:02.00
Пиково ниво 98.8 %
Качество на трака 100.0 %
Тестван CRC 4CBD97C1
Копиран CRC 4CBD97C1
Тракът не е в базата данни на AccurateRip
Копиране OK
Трак 16
Име на файл H:\Музика\16 - Sdelkata.wav
Дължина на предпразнина 0:00:02.00
Пиково ниво 98.8 %
Качество на трака 100.0 %
Тестван CRC 17914534
Копиран CRC 17914534
Тракът не е в базата данни на AccurateRip
Копиране OK
Трак 17
Име на файл H:\Музика\17 - Bez Ime.wav
Дължина на предпразнина 0:00:02.00
Пиково ниво 98.8 %
Качество на трака 100.0 %
Тестван CRC DB8A5A1A
Копиран CRC DB8A5A1A
Тракът не е в базата данни на AccurateRip
Копиране OK
Трак 18
Име на файл H:\Музика\18 - Povqrvaj.wav
Дължина на предпразнина 0:00:02.00
Пиково ниво 98.8 %
Качество на трака 100.0 %
Тестван CRC 0778B5E2
Копиран CRC 0778B5E2
Тракът не е в базата данни на AccurateRip
Копиране OK
Трак 19
Име на файл H:\Музика\19 - Sam.wav
Дължина на предпразнина 0:00:02.00
Пиково ниво 98.8 %
Качество на трака 100.0 %
Тестван CRC 92D35B1C
Копиран CRC 92D35B1C
Тракът не е в базата данни на AccurateRip
Копиране OK
Никой от траковете не е в базата данни на AccurateRip
Няма грешки
Край на отчета
CUE Sheet
REM GENRE Jazz+Funk
REM DATE 2008
REM DISCID 27128513
REM COMMENT "ExactAudioCopy v0.99pb5"
PERFORMER "Akaga"
TITLE "1993-2008"
FILE "01 - Edin Den.wav" WAVE
TRACK 01 AUDIO
TITLE "Edin Den"
PERFORMER "Akaga"
INDEX 01 00:00:00
TRACK 02 AUDIO
TITLE "Sofiq"
PERFORMER "Akaga"
INDEX 00 03:31:68
FILE "02 - Sofiq.wav" WAVE
INDEX 01 00:00:00
TRACK 03 AUDIO
TITLE "Cuba Libre"
PERFORMER "Akaga"
INDEX 00 03:35:28
FILE "03 - Cuba Libre.wav" WAVE
INDEX 01 00:00:00
TRACK 04 AUDIO
TITLE "Patuvam"
PERFORMER "Akaga"
INDEX 00 04:17:23
FILE "04 - Patuvam.wav" WAVE
INDEX 01 00:00:00
TRACK 05 AUDIO
TITLE "Jazz Is A Teacher"
PERFORMER "Akaga"
INDEX 00 03:59:13
FILE "05 - Jazz Is A Teacher.wav" WAVE
INDEX 01 00:00:00
TRACK 06 AUDIO
TITLE "Disco Party"
PERFORMER "Akaga"
INDEX 00 05:07:30
FILE "06 - Disco Party.wav" WAVE
INDEX 01 00:00:00
TRACK 07 AUDIO
TITLE "Letishte"
PERFORMER "Akaga"
INDEX 00 03:02:08
FILE "07 - Letishte.wav" WAVE
INDEX 01 00:00:00
TRACK 08 AUDIO
TITLE "Den bez den !"
PERFORMER "Akaga"
INDEX 00 03:23:33
FILE "08 - Den bez den !.wav" WAVE
INDEX 01 00:00:00
TRACK 09 AUDIO
TITLE "Get a Funky"
PERFORMER "Akaga"
INDEX 00 05:07:60
FILE "09 - Get a Funky.wav" WAVE
INDEX 01 00:00:00
TRACK 10 AUDIO
TITLE "Za malko ostani"
PERFORMER "Akaga"
INDEX 00 05:47:41
FILE "10 - Za malko ostani.wav" WAVE
INDEX 01 00:00:00
TRACK 11 AUDIO
TITLE "Vali"
PERFORMER "Akaga"
INDEX 00 03:13:20
FILE "11 - Vali.wav" WAVE
INDEX 01 00:00:00
TRACK 12 AUDIO
TITLE "Kasno lqto"
PERFORMER "Akaga"
INDEX 00 04:44:34
FILE "12 - Kasno lqto.wav" WAVE
INDEX 01 00:00:00
TRACK 13 AUDIO
TITLE "Changa-Ringa"
PERFORMER "Akaga"
INDEX 00 03:43:42
FILE "13 - Changa-Ringa.wav" WAVE
INDEX 01 00:00:00
TRACK 14 AUDIO
TITLE "You&Me"
PERFORMER "Akaga"
INDEX 00 03:53:35
FILE "14 - You&Me.wav" WAVE
INDEX 01 00:00:00
TRACK 15 AUDIO
TITLE "Ne chakaj"
PERFORMER "Akaga"
INDEX 00 04:47:40
FILE "15 - Ne chakaj.wav" WAVE
INDEX 01 00:00:00
TRACK 16 AUDIO
TITLE "Sdelkata"
PERFORMER "Akaga"
INDEX 00 04:30:16
FILE "16 - Sdelkata.wav" WAVE
INDEX 01 00:00:00
TRACK 17 AUDIO
TITLE "Bez Ime"
PERFORMER "Akaga"
INDEX 00 03:15:37
FILE "17 - Bez Ime.wav" WAVE
INDEX 01 00:00:00
TRACK 18 AUDIO
TITLE "Povqrvaj"
PERFORMER "Akaga"
INDEX 00 04:26:38
FILE "18 - Povqrvaj.wav" WAVE
INDEX 01 00:00:00
TRACK 19 AUDIO
TITLE "Sam"
PERFORMER "Akaga"
INDEX 00 04:21:04
FILE "19 - Sam.wav" WAVE
INDEX 01 00:00:00
Настоятельно рекомендуется любителям музыки таких групп как Chicago, Crusaders, Earth Wind And Fire и далее по списку.
Ребята играют очень ярко и технично, аранжировки изобретательны, мелодии запоминающиеся.
Саунд группы с "возрастом" становится в целом мягче, но до голимой попсы скатываться не собираются.
И это правильно.
рип скачан с болгарского треккера
сканы 600 dpi внутри

добавлен альбом 2008. остальное без изменений.
[Профиль] [ЛС]
Показать сообщения:    
Ответить на тему

Текущее время: 22-Июл 23:44

Часовой пояс: UTC + 3



Вы не можете начинать темы
Вы не можете отвечать на сообщения
Вы не можете редактировать свои сообщения
Вы не можете удалять свои сообщения
Вы не можете голосовать в опросах
Вы не можете прикреплять файлы к сообщениям
Вы не можете скачивать файлы