Сегодня идет свободное скачивание без начисления Download

Девочка и дельфин (1979) DVDRip

Ответить на тему
 
Автор Сообщение

Bot ®

Стаж: 4 года 2 месяца

Сообщений: 10

Создавать темы 09-Авг-2018 23:00

[Цитировать]

Девочка и дельфин (1979) DVDRip- Русское название: Девочка и дельфин
Год выпуска: 1979
Жанр: Детский

Режиссер: Розалия Зельма
Описание фильма:
Поэтический этюд о дружбе девочки и дельфина.
Продолжительность: 00:10:09
Качество видео: DVDRip
Видеокодек: Xvid
Битрейт видео: ~1893 kb/s
Размер кадра: 720x540
Аудиокодек: AC3, 2 ch
Битрейт аудио: 192 kb/s
MediaInfo
Общее
Полное имя : G:\Мультфильмы\Советские мультфильмы\Д\Девочка и дельфин.avi
Формат : AVI
Формат/Информация : Audio Video Interleave
Размер файла : 152 Мбайт
Продолжительность : 10 м.
Общий поток : 2092 Кбит/сек
Видео
Идентификатор : 0
Формат : MPEG-4 Visual
Профиль формата : Advanced Simple@L5
Параметр BVOP формата : 2
Параметр QPel формата : Нет
Параметр GMC формата : Без точки перехода
Параметр матрицы формата : Default (H.263)
Режим смешивания : Сжатый битовый поток
Идентификатор кодека : XVID
Идентификатор кодека/Подсказка : XviD
Продолжительность : 10 м.
Битрейт : 1893 Кбит/сек
Ширина : 720 пикс.
Высота : 540 пикс.
Соотношение сторон : 4:3
Частота кадров : 25,000 кадр/сек
Цветовое пространство : YUV
Подвыборка цветности : 4:2:0
Битовая глубина : 8 бит
Тип развёртки : Прогрессивная
Метод сжатия : С потерями
Бит/(Пиксели*Кадры) : 0.195
Размер потока : 138 Мбайт (90%)
Библиотека кодирования : XviD 1.2.1 (UTC 2008-12-04)
Аудио
Идентификатор : 1
Формат : AC-3
Формат/Информация : Audio Coding 3
Расширение режима : CM (complete main)
Идентификатор кодека : 2000
Продолжительность : 10 м.
Вид битрейта : Постоянный
Битрейт : 192 Кбит/сек
Канал(ы) : 2 канала(ов)
Расположение каналов : Front: L R
Частота : 48,0 КГц
Битовая глубина : 16 бит
Метод сжатия : С потерями
Задержка видео : 12 мс.
Размер потока : 13,9 Мбайт (9%)
Выравнивание : Разделение по промежуткам
Продолжительность промежутка : 84 мс. (2,10 видеокадров)
Скриншоты:
Все релизы Девочка и дельфин (1979) на NNM-ClubРеставрация от: starklad
[Профиль] [ЛС]
Показать сообщения:    
Ответить на тему

Текущее время: 17-Авг 12:18

Часовой пояс: UTC + 3



Вы не можете начинать темы
Вы не можете отвечать на сообщения
Вы не можете редактировать свои сообщения
Вы не можете удалять свои сообщения
Вы не можете голосовать в опросах
Вы не можете прикреплять файлы к сообщениям
Вы не можете скачивать файлы