Сегодня идет свободное скачивание без начисления Download

Радиус / Radius (2017) WEB-DLRip [H.264/720p-LQ] [MVO] [AD]

Ответить на тему
Статистика раздачи
Размер:  2,87 GB   |    Зарегистрирован:  7 дней   |    Скачан:  0 раз
Сидов:  40  [  0 KB/s  ]   Подробная статистика пиров
 
   
 
 
Автор Сообщение

Bot ®

Стаж: 2 года 5 месяцев

Сообщений: 8

Создавать темы 10-Авг-2018 08:45

[Цитировать]

Радиус / Radius (2017) WEB-DLRip- Производство: Канада / Peripatetic Pictures
Жанр: Фантастика, триллер
Режиссер: Кэролайн Лабреш
Актеры: Диего Клаттенхофф, Шарлотта Салливан, Роберт Боргес, Андреа дель Кампо, Назарий Демкович, Бретт Донахью, Алисия Джонстон, Гарт Меркели
Описание:
Очнувшись после автомобильной аварии Лиам не ничего не помнит. Он пытается найти помощь, на его пути встречаются лишь мертвые тела. Первая догадка Лиама - вирус, распространяющийся по воздуху, но совсем скоро он узнает ужасную правду - все, кто находятся от него в радиусе пятидесяти метров немедленно умирают.

Дата мировой премьеры: 17 июля 2017
Продолжительность: 01:33:44
Качество видео: WEB-DLRip
Перевод: Профессиональный многоголосый (Синема УС)
Субтитры: Отсутствуют
Реклама: Присутствуют вставки видео, голосовой и текстовой рекламы!
Видео: AVC, 1280x536 (2.35:1), 23.976 fps, 3 908 Kbps (0.238 bit/pixel)
Аудио: AC-3, 48.0 KHz, 2 ch, 384 Kbps, CBR
MediaInfo:
Общее
Уникальный идентификатор : 205128918357216519084939606962255471181 (0x9A5264838E765D17966E2EE7F0E8A24D)
Полное имя : E:\NNM\Радиус\Radius 2017 WEB-DL 720p-LQ.mkv
Формат : Matroska
Версия формата : Version 2
Размер файла : 2,87 Гбайт
Продолжительность : 1 ч. 33 м.
Режим общего битрейта : Переменный
Общий поток : 4379 Кбит/сек
Дата кодирования : UTC 2017-11-10 21:54:44
Программа кодирования : mkvmerge v8.3.0 ('Over the Horizon') 64bit
Библиотека кодирования : libebml v1.3.1 + libmatroska v1.4.2
Видео
Идентификатор : 1
Формат : AVC
Формат/Информация : Advanced Video Codec
Профиль формата : High@L4.1
Параметр CABAC формата : Да
Параметр RefFrames формата : 12 кадров
Идентификатор кодека : V_MPEG4/ISO/AVC
Продолжительность : 1 ч. 33 м.
Вид битрейта : Переменный
Битрейт : 3993 Кбит/сек
Максимальный битрейт : 4500 Кбит/сек
Ширина : 1280 пикселей
Высота : 536 пикселей
Соотношение сторон : 2,40:1
Режим частоты кадров : Постоянный
Частота кадров : 23,976 (24000/1001) кадра/сек
Стандарт вещания : Component
Цветовое пространство : YUV
Субдискретизация насыщенности : 4:2:0
Битовая глубина : 8 бит
Тип развёртки : Прогрессивная
Бит/(Пиксели*Кадры) : 0.243
Размер потока : 2,61 Гбайт (91%)
Default : Да
Forced : Нет
Цветовой диапазон : Limited
Основные цвета : BT.709
Характеристики трансфера : BT.709
Коэффициенты матрицы : BT.709
Аудио
Идентификатор : 2
Формат : AC-3
Формат/Информация : Audio Coding 3
Параметр Endianness формата : Big
Идентификатор кодека : A_AC3
Продолжительность : 1 ч. 33 м.
Вид битрейта : Постоянный
Битрейт : 384 Кбит/сек
Каналы : 2 канала
Расположение каналов : Front: L R
Частота : 48,0 КГц
Частота кадров : 31,250 кадров/сек (1536 SPF)
Битовая глубина : 16 бит
Метод сжатия : С потерями
Размер потока : 257 Мбайт (9%)
ServiceKind/String : Complete Main
Default : Да
Forced : Нет
Скриншоты: Все одноименные релизы в КлубеВремя раздачи: Круглосуточно до 10 скачавших
[realmt.org].t1114026.torrent 
Торрент: Зарегистрирован [ 2018-08-10 08:45 ] · 8ECDE72CA63E28AA2CD1BB11D66A0A19A4A93299

Скачать .torrent

Скачать

15 KB

Статус: проверено
Скачан: 0 раз
Размер: 2,87 GB
terms.php
Последние поблагодарившие
[Профиль] [ЛС]
Быстрый ответ

Имя:

      
Для отправки сообщений необходимо включить JavaScript
Показать сообщения:    
Ответить на тему

Текущее время: 17-Авг 12:19

Часовой пояс: UTC + 3



Вы можете начинать темы
Вы можете отвечать на сообщения
Вы не можете редактировать свои сообщения
Вы не можете удалять свои сообщения
Вы не можете голосовать в опросах
Вы не можете прикреплять файлы к сообщениям
Вы можете скачивать файлы