Сегодня идет свободное скачивание без начисления Download

(Grunge/Instrumental/Tribute) VA - Libido: The Piano Tribute To Nirvana - 2005, FLAC (tracks+.cue), lossless

Ответить на тему
 
Автор Сообщение

Bot ®

Стаж: 3 года 6 месяцев

Сообщений: 8

Создавать темы 10-Авг-2018 12:45

[Цитировать]

Various Artists - Libido: The Piano Tribute To Nirvana
Жанр: Grunge, Instrumental, Tribute
Год выпуска диска: 2005
Производитель диска: USA
Аудио кодек: FLAC
Тип рипа: tracks+.cue
Битрейт аудио: lossless
Продолжительность: 57:10
Трэклист:
1. Lithium
2. Dumb
3. On a Plain
4. Serve the Servants
5. Drain You
6. In Bloom
7. About a Girl
8. Heart Shaped Box
9. Come as You Are
10. Pennyroyal Tea
11. All Apologies
12. Nehan
Доп. информация:
Отчёт EAC
Exact Audio Copy V0.99 prebeta 4 from 23. January 2008
EAC extraction logfile from 6. January 2009, 14:00
Nirvana / Libido
Used drive : TSSTcorpDVD+-RW TS-L632H Adapter: 1 ID: 0
Read mode : Secure
Utilize accurate stream : Yes
Defeat audio cache : Yes
Make use of C2 pointers : No
Read offset correction : 6
Overread into Lead-In and Lead-Out : No
Fill up missing offset samples with silence : Yes
Delete leading and trailing silent blocks : No
Null samples used in CRC calculations : Yes
Used interface : Native Win32 interface for Win NT & 2000
Gap handling : Appended to previous track
Used output format : User Defined Encoder
Selected bitrate : 128 kBit/s
Quality : High
Add ID3 tag : No
Command line compressor : C:\Program Files\Exact Audio Copy\Flac\flac.exe
Additional command line options : -V -8 -T "artist=%a" -T "title=%t" -T "album=%g" -T "date=%y" -T "tracknumber=%n" -T "genre=%m" %s
TOC of the extracted CD
Track | Start | Length | Start sector | End sector
---------------------------------------------------------
1 | 0:00.00 | 5:24.60 | 0 | 24359
2 | 5:24.60 | 3:20.39 | 24360 | 39398
3 | 8:45.24 | 4:33.19 | 39399 | 59892
4 | 13:18.43 | 5:25.18 | 59893 | 84285
5 | 18:43.61 | 5:23.48 | 84286 | 108558
6 | 24:07.34 | 4:16.65 | 108559 | 127823
7 | 28:24.24 | 3:44.06 | 127824 | 144629
8 | 32:08.30 | 4:52.64 | 144630 | 166593
9 | 37:01.19 | 5:27.45 | 166594 | 191163
10 | 42:28.64 | 5:10.13 | 191164 | 214426
11 | 47:39.02 | 4:45.45 | 214427 | 235846
12 | 52:24.47 | 4:51.40 | 235847 | 257711
Track 1
Filename C:\Documents and Settings\RGM2\My Documents\My Music\_Rips\Nirvana.Libido - Piano\Nirvana\Libido\01 - Lithium.wav
Pre-gap length 0:00:02.00
Peak level 70.8 %
Track quality 100.0 %
Test CRC D78202D7
Copy CRC D78202D7
Copy OK
Track 2
Filename C:\Documents and Settings\RGM2\My Documents\My Music\_Rips\Nirvana.Libido - Piano\Nirvana\Libido\02 - Dumb.wav
Pre-gap length 0:00:04.70
Peak level 69.3 %
Track quality 100.0 %
Test CRC B8F28185
Copy CRC B8F28185
Copy OK
Track 3
Filename C:\Documents and Settings\RGM2\My Documents\My Music\_Rips\Nirvana.Libido - Piano\Nirvana\Libido\03 - On a plain.wav
Pre-gap length 0:00:06.12
Peak level 77.7 %
Track quality 99.9 %
Test CRC E0F48F76
Copy CRC E0F48F76
Copy OK
Track 4
Filename C:\Documents and Settings\RGM2\My Documents\My Music\_Rips\Nirvana.Libido - Piano\Nirvana\Libido\04 - Serve the servants.wav
Pre-gap length 0:00:02.73
Peak level 69.7 %
Track quality 100.0 %
Test CRC B90BA495
Copy CRC B90BA495
Copy OK
Track 5
Filename C:\Documents and Settings\RGM2\My Documents\My Music\_Rips\Nirvana.Libido - Piano\Nirvana\Libido\05 - Drain you.wav
Pre-gap length 0:00:03.44
Peak level 72.1 %
Track quality 100.0 %
Test CRC 075604BD
Copy CRC 075604BD
Copy OK
Track 6
Filename C:\Documents and Settings\RGM2\My Documents\My Music\_Rips\Nirvana.Libido - Piano\Nirvana\Libido\06 - In bloom.wav
Pre-gap length 0:00:03.58
Peak level 82.5 %
Track quality 100.0 %
Test CRC FF291CA0
Copy CRC FF291CA0
Copy OK
Track 7
Filename C:\Documents and Settings\RGM2\My Documents\My Music\_Rips\Nirvana.Libido - Piano\Nirvana\Libido\07 - About a girl.wav
Pre-gap length 0:00:04.16
Peak level 75.9 %
Track quality 100.0 %
Test CRC 898EADA3
Copy CRC 898EADA3
Copy OK
Track 8
Filename C:\Documents and Settings\RGM2\My Documents\My Music\_Rips\Nirvana.Libido - Piano\Nirvana\Libido\08 - Heart shaped box.wav
Pre-gap length 0:00:02.88
Peak level 84.1 %
Track quality 100.0 %
Test CRC F413D50B
Copy CRC F413D50B
Copy OK
Track 9
Filename C:\Documents and Settings\RGM2\My Documents\My Music\_Rips\Nirvana.Libido - Piano\Nirvana\Libido\09 - Come as you are.wav
Pre-gap length 0:00:04.24
Peak level 74.4 %
Track quality 100.0 %
Test CRC 8E3D9F77
Copy CRC 8E3D9F77
Copy OK
Track 10
Filename C:\Documents and Settings\RGM2\My Documents\My Music\_Rips\Nirvana.Libido - Piano\Nirvana\Libido\10 - Pennyroyal tea.wav
Pre-gap length 0:00:03.22
Peak level 83.9 %
Track quality 100.0 %
Test CRC F9AE0F42
Copy CRC F9AE0F42
Copy OK
Track 11
Filename C:\Documents and Settings\RGM2\My Documents\My Music\_Rips\Nirvana.Libido - Piano\Nirvana\Libido\11 - All apologies.wav
Pre-gap length 0:00:02.49
Peak level 69.0 %
Track quality 99.9 %
Test CRC E7B08392
Copy CRC E7B08392
Copy OK
Track 12
Filename C:\Documents and Settings\RGM2\My Documents\My Music\_Rips\Nirvana.Libido - Piano\Nirvana\Libido\12 - Nethan.wav
Pre-gap length 0:00:03.84
Peak level 84.0 %
Track quality 100.0 %
Test CRC 2E8538EC
Copy CRC 2E8538EC
Copy OK
No errors occurred
End of status report
[Профиль] [ЛС]
Показать сообщения:    
Ответить на тему

Текущее время: 17-Авг 12:18

Часовой пояс: UTC + 3



Вы не можете начинать темы
Вы не можете отвечать на сообщения
Вы не можете редактировать свои сообщения
Вы не можете удалять свои сообщения
Вы не можете голосовать в опросах
Вы не можете прикреплять файлы к сообщениям
Вы не можете скачивать файлы