Сегодня идет свободное скачивание без начисления Download

(Ambient) Jeff Greinke - Lost Terrain [Hypnos / hyp1916 / Reissue] - 1999, FLAC (image+.cue), lossless

Ответить на тему
 
Автор Сообщение

Bot ®

Стаж: 2 года 4 месяца

Сообщений: 19

Создавать темы 10-Авг-2018 13:30

[Цитировать]

Jeff Greinke - Lost Terrain
Лэйбл: Hypnos
Каталог#: hyp1916
Жанр: Ambient
Год выпуска диска: 1999
Производитель диска: США
Аудио кодек: FLAC
Тип рипа: image+.cue
Битрейт аудио: lossless
Продолжительность: 52:02
_____________________________
Трэклист:
1 Terrain Of Memory (7:15)
2 The Cry (4:18)
3 The Moor (6:55)
4 River Of Wood (4:42)
5 Falling Away (7:05)
6 The Precipice (5:16)
7 Spires (3:39)
8 Rendered Motionless (8:26)
9 Confluence (4:36)
Доп. информация:
http://www.discogs.com/Jeff-Greinke-Lost-Terrain/release/221382
+ СКАНЫ 600 DPI
Отчeт EAC
Exact Audio Copy V0.99 prebeta 4 from 23. January 2008
EAC extraction logfile from 1. May 2009, 16:44
Jeff Greinke / Lost Terrain
Used drive : Optiarc DVD RW AD-7220A Adapter: 1 ID: 2
Read mode : Secure
Utilize accurate stream : Yes
Defeat audio cache : Yes
Make use of C2 pointers : No
Read offset correction : 6
Overread into Lead-In and Lead-Out : No
Fill up missing offset samples with silence : Yes
Delete leading and trailing silent blocks : No
Null samples used in CRC calculations : Yes
Used interface : Installed external ASPI interface
Used output format : User Defined Encoder
Selected bitrate : 320 kBit/s
Quality : High
Add ID3 tag : No
Command line compressor : C:\Program Files\Exact Audio Copy\Flac\flac.exe
Additional command line options : --fast -T "ARTIST=%a" -T "TITLE=%t" -T "ALBUM=%g" -T "DATE=%y" -T "TRACKNUMBER=%n" -T "GENRE=%m" %s
TOC of the extracted CD
Track | Start | Length | Start sector | End sector
---------------------------------------------------------
1 | 0:00.00 | 7:13.37 | 0 | 32511
2 | 7:13.37 | 4:16.00 | 32512 | 51711
3 | 11:29.37 | 6:53.70 | 51712 | 82756
4 | 18:23.32 | 4:41.20 | 82757 | 103851
5 | 23:04.52 | 7:03.23 | 103852 | 135599
6 | 30:08.00 | 5:14.27 | 135600 | 159176
7 | 35:22.27 | 3:37.53 | 159177 | 175504
8 | 39:00.05 | 8:24.30 | 175505 | 213334
9 | 47:24.35 | 4:37.05 | 213335 | 234114
Range status and errors
Selected range
Filename Y:\_EAC_New\Jeff Greinke - Lost Terrain.wav
Peak level 90.5 %
Range quality 100.0 %
Test CRC D441BA3A
Copy CRC D441BA3A
Copy OK
No errors occurred
AccurateRip summary
Track 1 cannot be verified as accurate (confidence 1) [AB072E3B], AccurateRip returned [E70C7DDF]
Track 2 cannot be verified as accurate (confidence 1) [CCE7CFA1], AccurateRip returned [EEC335C6]
Track 3 cannot be verified as accurate (confidence 1) [17CB7891], AccurateRip returned [90F3BEBA]
Track 4 cannot be verified as accurate (confidence 1) [8F5E876A], AccurateRip returned [894D72E8]
Track 5 cannot be verified as accurate (confidence 1) [10443518], AccurateRip returned [FD21B6C3]
Track 6 cannot be verified as accurate (confidence 1) [AD27D6E4], AccurateRip returned [B59042B4]
Track 7 cannot be verified as accurate (confidence 1) [04D98E5F], AccurateRip returned [F8EC9459]
Track 8 cannot be verified as accurate (confidence 1) [32CCF7BD], AccurateRip returned [D7E2335B]
Track 9 cannot be verified as accurate (confidence 1) [E1A7CEB5], AccurateRip returned [AEAFFAC1]
No tracks could be verified as accurate
You may have a different pressing from the one(s) in the database
End of status report
[Профиль] [ЛС]
Показать сообщения:    
Ответить на тему

Текущее время: 17-Авг 12:18

Часовой пояс: UTC + 3



Вы не можете начинать темы
Вы не можете отвечать на сообщения
Вы не можете редактировать свои сообщения
Вы не можете удалять свои сообщения
Вы не можете голосовать в опросах
Вы не можете прикреплять файлы к сообщениям
Вы не можете скачивать файлы