Сегодня идет свободное скачивание без начисления Download

(Experimental, Minimal) Doron Sadja - A Piece Of String, A Sunset [12k, 12K1023] - 2003, FLAC (image+.cue), lossless

Ответить на тему
 
Автор Сообщение

Bot ®

Стаж: 4 года 7 месяцев

Сообщений: 11

Создавать темы 10-Авг-2018 13:45

[Цитировать]

Doron Sadja - A Piece Of String, A Sunset
Жанр: Experimental, Minimal
Год выпуска диска: 2003
Производитель диска: US
Label: 12k
Catalog#: 12K1023
Аудио кодек: FLAC
Тип рипа: image+.cue
Битрейт аудио: lossless
Продолжительность: 42:14
Источник: ed2k
Релизер: kENNy
Трэклист:
01. Untitled (11:49)
02. Untitled (12:51)
03. Untitled (2:46)
04. Untitled (5:04)
05. Untitled (9:39)
Log EAC
Exact Audio Copy V0.99 prebeta 3 from 28. July 2007
EAC extraction logfile from 3. September 2007, 13:45
Doron Sadja / A Piece of String, A Sunset
Used drive : LITE-ON LTR-52246S Adapter: 1 ID: 0
Read mode : Secure
Utilize accurate stream : Yes
Defeat audio cache : Yes
Make use of C2 pointers : No
Read offset correction : 6
Overread into Lead-In and Lead-Out : No
Fill up missing offset samples with silence : Yes
Delete leading and trailing silent blocks : No
Null samples used in CRC calculations : Yes
Used interface : Installed external ASPI interface
Used output format : Internal WAV Routines
Sample format : 44.100 Hz; 16 Bit; Stereo
TOC of the extracted CD
Track | Start | Length | Start sector | End sector
---------------------------------------------------------
1 | 0:00.00 | 11:49.74 | 0 | 53248
2 | 11:49.74 | 12:51.45 | 53249 | 111118
3 | 24:41.44 | 2:46.70 | 111119 | 123638
4 | 27:28.39 | 5:04.20 | 123639 | 146458
5 | 32:32.59 | 9:41.14 | 146459 | 190047
Range status and errors
Selected range
Filename E:\HQ center\wav\Doron Sadja - A Piece of String, A Sunset\Doron Sadja - A Piece of String, A Sunset.wav
Peak level 100.0 %
Range quality 99.9 %
Copy CRC 5AD1779A
Copy OK
No errors occurred
AccurateRip summary
Track 1 accurately ripped (confidence 1) [A080EE48]
Track 2 accurately ripped (confidence 1) [39325001]
Track 3 accurately ripped (confidence 1) [A6B95C38]
Track 4 accurately ripped (confidence 1) [20FC7E0E]
Track 5 accurately ripped (confidence 1) [CC8CBC02]
All tracks accurately ripped
End of status report
[Профиль] [ЛС]
Показать сообщения:    
Ответить на тему

Текущее время: 17-Авг 12:19

Часовой пояс: UTC + 3



Вы не можете начинать темы
Вы не можете отвечать на сообщения
Вы не можете редактировать свои сообщения
Вы не можете удалять свои сообщения
Вы не можете голосовать в опросах
Вы не можете прикреплять файлы к сообщениям
Вы не можете скачивать файлы