Сегодня идет свободное скачивание без начисления Download

(Fusion/Post-Bop) T.J. Kirk (Will Bernard/Charlie Hunter/John Schott) - "If Four Was One" - 1996, APE (image+.cue), lossless

Ответить на тему
 
Автор Сообщение

Bot ®

Стаж: 5 лет 6 месяцев

Сообщений: 11

Создавать темы 10-Авг-2018 14:00

[Цитировать]

T.J. Kirk "If Four Was One"
Жанр: Fusion , Post-Bop
Год выпуска диска: 1996
Производитель диска: Warner Bros.
Аудио кодек: APE
Тип рипа: image+.cue
Битрейт аудио: lossless
Продолжительность: 43:16
T.J. Kirk составлено из:
"T"=Thelonius, "J"=James Brown, and "Kirk"=Rasaan Roland Kirk.
Думаю аббревиатура названия достаточно точно
характеризует направленность и содержание альбома.
AMG о альбоме
Трэклист:
1. Damn Right I'm Somebody
2. Get on the Good Foot/Rockhard in a Funky Place
3. Stomping Grounds/Untitled Instrumental/Green Chimneys
4. Payback/I Mean You
5. Brake's Sake
6. Ruby, My Dear
7. Meeting at Termini's Corner/I Got a Bag of My Own/Brilliant Corners
8. Cross the Track/Thelonious
9. Four in One
Состав:
Will Bernard Guitar, Slide Guitar
Charlie Hunter Guitar (8 String)
John Schott Guitar
Scott Amendola Percussion, Drums
T.J. Kirk - "T.J. Kirk" , 1995 от ivoronen
EAC log
Exact Audio Copy V0.99 prebeta 4 from 23. January 2008
Отчёт EAC об извлечении, выполненном 21. июня 2009, 22:56
T.J. Kirk / If Four Was One
Дисковод: HL-DT-STDVDRAM GH20NS10 Adapter: 1 ID: 0
Режим чтения : Достоверность
Использование точного потока : Да
Отключение кэша аудио : Да
Использование указателей C2 : Нет
Коррекция смещения при чтении : 667
Способность читать области Lead-in и Lead-out : Нет
Заполнение пропущенных сэмплов тишиной : Да
Удаление блоков с тишиной в начале и конце : Нет
При вычислениях CRC использовались нулевые сэмплы : Да
Интерфейс : Установленный внешний ASPI-интерфейс
Выходной формат : Внутренние WAV-операции
Формат сэмплов : 44.100 Гц; 16 бит; стерео
TOC извлечённого CD
Трек | Старт | Длительность | Начальный сектор | Конечный сектор
---------------------------------------------------------------------
1 | 0:00.00 | 5:06.08 | 0 | 22957
2 | 5:06.08 | 6:42.41 | 22958 | 53148
3 | 11:48.49 | 5:32.10 | 53149 | 78058
4 | 17:20.59 | 4:04.70 | 78059 | 96428
5 | 21:25.54 | 4:29.04 | 96429 | 116607
6 | 25:54.58 | 3:20.53 | 116608 | 131660
7 | 29:15.36 | 4:44.68 | 131661 | 153028
8 | 34:00.29 | 4:43.54 | 153029 | 174307
9 | 38:44.08 | 4:31.54 | 174308 | 194686
Характеристики диапазона извлечения и сообщения об ошибках
Выбранный диапазон
Имя файла F:\Torrent.in\Peter Hammill - Thin Air (2009)\Новая папка\T.J. Kirk - If Four Was One.wav
Пиковый уровень 100.0 %
Качество диапазона 100.0 %
CRC копии 56320898
Копирование... OK
Ошибок не произошло
Конец отчёта
[Профиль] [ЛС]
Показать сообщения:    
Ответить на тему

Текущее время: 17-Авг 12:19

Часовой пояс: UTC + 3



Вы не можете начинать темы
Вы не можете отвечать на сообщения
Вы не можете редактировать свои сообщения
Вы не можете удалять свои сообщения
Вы не можете голосовать в опросах
Вы не можете прикреплять файлы к сообщениям
Вы не можете скачивать файлы