Сегодня идет свободное скачивание без начисления Download

(Blues-Rock/Southern Rock/Slide Guitar Blues/Hard Rock/Boogie) The Allman Brothers Band - One Way Out - 2004 (2CD), APE (image+.cue), lossless

Ответить на тему
 
Автор Сообщение

Bot ®

Стаж: 5 месяцев 14 дней

Сообщений: 2

Создавать темы 10-Авг-2018 14:00

[Цитировать]

The Allman Brothers Band - One Way Out (2 - CD)
Жанр: Blues-Rock/Southern Rock/Slide Guitar Blues/Hard Rock/Boogie Rock
Год выпуска диска: 2004
Производитель диска: USA
Аудио кодек: APE
Тип рипа: image+.cue
Битрейт аудио: lossless
Продолжительность: 01:13:00/01:15:00
Трэклист:
Disc 1:

1. Statesboro Blues
2. Don't Keep Me Wondering
3. Midnight Rider
4. Rockin' Horse
5. Desdemona
6. Trouble No More
7. Wasted Words
8. Good Morning Little Schoolgirl
9. Instrumental Illness

Disc 2:

1. Ain't Wastin' Time No More
2. Come & Go Blues
3. Woman Across The River
4. Old Before My Time
5. Every Hungry Women
6. High Cost Of Low Living
7. Worried Down With The Blues
8. Dreams
9. Whippin' Post

Доп. информация:
Отчет EAC CD 1
Exact Audio Copy V0.99 prebeta 4 from 23. January 2008
Отчёт EAC об извлечении, выполненном 22. июня 2009, 14:16
Allman Brothers Band / One Way Out: Live at the Beacon Theatre [disc 1]
Дисковод: PLEXTOR DVDR PX-800A Adapter: 0 ID: 0
Режим чтения : Достоверность
Использование точного потока : Да
Отключение кэша аудио : Да
Использование указателей C2 : Нет
Коррекция смещения при чтении : 48
Способность читать области Lead-in и Lead-out : Нет
Заполнение пропущенных сэмплов тишиной : Да
Удаление блоков с тишиной в начале и конце : Нет
При вычислениях CRC использовались нулевые сэмплы : Да
Интерфейс : Установленный внешний ASPI-интерфейс
Выходной формат : Внутренние WAV-операции
Формат сэмплов : 44.100 Гц; 16 бит; стерео
TOC извлечённого CD
Трек | Старт | Длительность | Начальный сектор | Конечный сектор
---------------------------------------------------------------------
1 | 0:00.00 | 5:22.05 | 0 | 24154
2 | 5:22.05 | 4:12.56 | 24155 | 43110
3 | 9:34.61 | 3:16.18 | 43111 | 57828
4 | 12:51.04 | 10:12.46 | 57829 | 103774
5 | 23:03.50 | 13:27.29 | 103775 | 164328
6 | 36:31.04 | 3:45.31 | 164329 | 181234
7 | 40:16.35 | 7:51.29 | 181235 | 216588
8 | 48:07.64 | 9:01.00 | 216589 | 257163
9 | 57:08.64 | 16:42.67 | 257164 | 332380
Характеристики диапазона извлечения и сообщения об ошибках
Выбранный диапазон
Имя файла D:\Lossless\The Allman Brothers - One Way Out (2 CD)\CD-1\Allman Brothers Band - One Way Out Live at the Beacon Theatre [disc 1].wav
Пиковый уровень 100.0 %
Качество диапазона 99.9 %
CRC копии A569573B
Копирование... OK
Ошибок не произошло
Конец отчёта
Отсчет EAC CD 2
Exact Audio Copy V0.99 prebeta 4 from 23. January 2008
Отчёт EAC об извлечении, выполненном 22. июня 2009, 14:16
Allman Brothers Band / One Way Out: Live at the Beacon Theatre [disc 1]
Дисковод: PLEXTOR DVDR PX-800A Adapter: 0 ID: 0
Режим чтения : Достоверность
Использование точного потока : Да
Отключение кэша аудио : Да
Использование указателей C2 : Нет
Коррекция смещения при чтении : 48
Способность читать области Lead-in и Lead-out : Нет
Заполнение пропущенных сэмплов тишиной : Да
Удаление блоков с тишиной в начале и конце : Нет
При вычислениях CRC использовались нулевые сэмплы : Да
Интерфейс : Установленный внешний ASPI-интерфейс
Выходной формат : Внутренние WAV-операции
Формат сэмплов : 44.100 Гц; 16 бит; стерео
TOC извлечённого CD
Трек | Старт | Длительность | Начальный сектор | Конечный сектор
---------------------------------------------------------------------
1 | 0:00.00 | 5:22.05 | 0 | 24154
2 | 5:22.05 | 4:12.56 | 24155 | 43110
3 | 9:34.61 | 3:16.18 | 43111 | 57828
4 | 12:51.04 | 10:12.46 | 57829 | 103774
5 | 23:03.50 | 13:27.29 | 103775 | 164328
6 | 36:31.04 | 3:45.31 | 164329 | 181234
7 | 40:16.35 | 7:51.29 | 181235 | 216588
8 | 48:07.64 | 9:01.00 | 216589 | 257163
9 | 57:08.64 | 16:42.67 | 257164 | 332380
Характеристики диапазона извлечения и сообщения об ошибках
Выбранный диапазон
Имя файла D:\Lossless\The Allman Brothers - One Way Out (2 CD)\CD-1\Allman Brothers Band - One Way Out Live at the Beacon Theatre [disc 1].wav
Пиковый уровень 100.0 %
Качество диапазона 99.9 %
CRC копии A569573B
Копирование... OK
Ошибок не произошло
Конец отчёта
Рип с фирменного диска
[Профиль] [ЛС]
Показать сообщения:    
Ответить на тему

Текущее время: 17-Авг 12:18

Часовой пояс: UTC + 3



Вы не можете начинать темы
Вы не можете отвечать на сообщения
Вы не можете редактировать свои сообщения
Вы не можете удалять свои сообщения
Вы не можете голосовать в опросах
Вы не можете прикреплять файлы к сообщениям
Вы не можете скачивать файлы