Стражи Галактики / Guardians of the Galaxy (2014) HDTVRip [H.264/1080p-LQ] [Трейлер]

Ответить на тему
Статистика раздачи
Размер:  120 MB   |    Зарегистрирован:  3 года 1 месяц   |    Скачан:  0 раз

Полного источника не было: Никогда

 
   
 
 
Автор Сообщение

Bot ®

Стаж: 3 года 11 месяцев

Сообщений: 162151

Создавать темы 30-Май-2014 10:22

[Цитировать]

-Стражи Галактики / Guardians of the Galaxy (2014) HDTVRip [H.264/1080p-LQ] [Трейлер] - Год выпуска: 2014
Производство: США
Жанр: Боевик, Фантастика, Приключения
Перевод: Дублированный
Язык: Русский-Дата мировой премьеры: 31 июля 2014
Дата российской премьеры: 31 июля 2014, «WDSSPR»3D
Дата выхода DVD релиза: 2 декабря 2014,«Уолт Дисней Компани СНГ»,-Режиссер: Джеймс Ганн
Продюсер: Кевин Файги, Виктория Алонсо, Луис Д’Эспозито
Актеры: Брэдли Купер, Крис Прэтт, Вин Дизель, Зои Салдана, Ли Пейс, Карен Гиллан, Бенисио Дель Торо, Джон Си Райли, Дэйв Батиста, Джимон Хонсу
Описание фильма:
Главный герой, это парень с планеты Земля по имени Питер, именующий себя "Звездным лордом", находится в розыске за разбои, пьянство и мошенничество. Это человек, который постоянно ищет приключений на свою голову. После того как в его руки попадает артефакт, за которым гоняется вся галактика, он объединяется с четырьмя преступниками из других миров. Первый это Дракс, по прозвищу "Разрушитель", потерял свою семью, после чего мстит буквально всем, вторая Гамора, наемный киллер и убийца, профессионал в своем деле, находится в розыске за серию убийств. Третий это енот по прозвищу "Ракета", умелый угонщик космических кораблей, четвертый человек дерево Грут. Их объединяют в одну команду, так как у каждого свои способности, которые могут помочь общему делу. Теперь они Стражи Галактики и спасение всей вселенной в их руках.- -Продолжительность: 00:02:30
Качество видео: HDTVRip [H.264/1080p-LQ]
Видеокодек: MPEG-4 AVC/H.264
Битрейт видео: ~6 562
Размер кадра: 1920x800
Аудио: ААС 2.0; 127 Kbps; 44,1 КГц (VBR)
MediaInfo:
Общее
Полное имя : D:\Трейлер\Стражи Галактики-Guardians-of-the-Galaxy-трейлер.mp4
Формат : MPEG-4
Профиль формата : Base Media
Идентификатор кодека : isom
Размер файла : 120 Мбайт
Продолжительность : 2 м. 30 с.
Режим общего битрейта : Переменный
Общий поток : 6692 Кбит/сек
Дата кодирования : UTC 2014-02-19 05:54:28
Дата пометки : UTC 2014-02-19 05:54:28
Программа кодирования : Lavf51.12.1
Видео
Идентификатор : 1
Формат : AVC
Формат/Информация : Advanced Video Codec
Профиль формата : High@L4.0
Параметр CABAC формата : Нет
Параметр ReFrames формата : 5 кадров
Параметр GOP формата : M=1, N=12
Идентификатор кодека : avc1
Идентификатор кодека/Информация : Advanced Video Coding
Продолжительность : 2 м. 30 с.
Битрейт : 6562 Кбит/сек
Ширина : 1920 пикселей
Высота : 800 пикселей
Соотношение сторон : 2,40:1
Режим частоты кадров : Постоянный
Частота кадров : 23,976 кадра/сек
Цветовое пространство : YUV
Субдискретизация насыщенности : 4:2:0
Битовая глубина : 8 бит
Тип развёртки : Прогрессивная
Бит/(Пиксели*Кадры) : 0.178
Размер потока : 117 Мбайт (98%)
Дата кодирования : UTC 2014-02-19 05:54:28
Дата пометки : UTC 2014-02-19 05:54:28
Аудио
Идентификатор : 2
Формат : AAC
Формат/Информация : Advanced Audio Codec
Профиль формата : LC
Идентификатор кодека : 40
Продолжительность : 2 м. 30 с.
Вид битрейта : Переменный
Битрейт : 127 Кбит/сек
Каналы : 2 канала
Расположение каналов : Front: L R
Частота : 44,1 КГц
Метод сжатия : С потерями
Размер потока : 2,27 Мбайт (2%)
Дата кодирования : UTC 2014-02-19 05:54:28
Дата пометки : UTC 2014-02-19 05:54:28
Скриншоты:

Время раздачи: По возможности. До первых 5 сидов.
[realmt.org].t350628.torrent 
Торрент: Зарегистрирован [ 2014-05-30 10:22 ] · AAF40630A8351C4F85E31EAFC8C9DF2FDE525A4B

Скачать .torrent

Скачать

20 KB

Статус: проверено
Скачан: 0 раз
Размер: 120 MB
Оценка:  - (Голосов: 0)
Поблагодарили: 0  Спасибо
terms.php
Похожие темы
[Профиль] [ЛС]
Быстрый ответ

Имя:

      
Для отправки сообщений необходимо включить JavaScript
Показать сообщения:    
Ответить на тему

Текущее время: 28-Июл 13:44

Часовой пояс: UTC + 3



Вы можете начинать темы
Вы можете отвечать на сообщения
Вы не можете редактировать свои сообщения
Вы не можете удалять свои сообщения
Вы не можете голосовать в опросах
Вы не можете прикреплять файлы к сообщениям
Вы можете скачивать файлы