Сегодня идет свободное скачивание без начисления Download

Геракл / Hercules (2014) HDTVRip [1080p] [Трейлер]

Ответить на тему
Статистика раздачи
Размер:  178 MB   |    Зарегистрирован:  2 года 10 месяцев   |    Скачан:  0 раз

Полного источника не было: Никогда

 
   
 
 
Автор Сообщение

Bot ®

Стаж: 3 года 8 месяцев

Сообщений: 162153

Создавать темы 04-Июн-2014 18:59

[Цитировать]

-Геракл / Hercules (2014) HDTVRip [1080p] [Трейлер]- Год выпуска: 2014
Производство: США / Paramount Pictures, Metro-Goldwyn-Mayer (MGM), Flynn Picture Company
Жанр: приключения, боевик
Язык: Русский
Перевод: Полное дублирование
Дата мировой премьеры: 24 июля 2014
Дата российской премьеры: 24 июля 2014, «Централ Партнершип» 3D
Режиссер: Бретт Рэтнер
Актеры: Дуэйн Джонсон, Иэн МакШейн, Джон Херт, Джозеф Файнс, Руфус Сьюэлл, Робер Майе
Описание фильма: Более тысячи лет назад измученная душа скиталась по Земле, полубог, получеловек — Геракл — могучий сын царя богов Зевса, совершив все 12 подвигов, потерял семью и теперь находит утешение только в кровавых битвах.
За эти годы он собирает вокруг себя шестерых таких же потерянных воинов, единственным смыслом жизни для которых стали сражения и присутствие смертельной опасности. Эти мужчины и женщина никогда не задают вопрос, где, почему или с кем они идут сражаться; только, сколько им заплатят. Зная это, фракийский царь Котис нанимает этих воинов, чтобы они обучили его солдат и сделали из них самую сильную и великую армию всех времен.
Геракл начинает сомневаться в намерениях Котиса, когда тот выводит свою армию и жертвами ее нападения становятся невинные люди соседних поселений. И тогда он принимает решение остановить обезумевшего от власти царя и его армию от похода на Грецию, а, быть может, и на сам Олимп…- -Продолжительность: 00:02:21
Качество видео: HDTVRip
Видеокодек: MPEG-4 AVC
Битрейт видео: ~10.4 Mbps
Размер кадра: 1920x1080
Аудиокодек: AAC 2.0
Битрейт аудио: 151 Kbps (VBR)
MediaInfo
Complete name : F:\Herakl_2014_HD_trl.mp4
Format : MPEG-4
Format profile : Base Media
Codec ID : isom
File size : 178 MiB
Duration : 2mn 21s
Overall bit rate mode : Variable
Overall bit rate : 10.6 Mbps
Writing application : Lavf55.19.104
Video
ID : 1
Format : AVC
Format/Info : Advanced Video Codec
Format profile : High@L4.0
Format settings, CABAC : Yes
Format settings, ReFrames : 4 frames
Codec ID : avc1
Codec ID/Info : Advanced Video Coding
Duration : 2mn 21s
Bit rate : 10.4 Mbps
Width : 1 920 pixels
Height : 1 080 pixels
Display aspect ratio : 16:9
Frame rate mode : Constant
Frame rate : 25.000 fps
Color space : YUV
Chroma subsampling : 4:2:0
Bit depth : 8 bits
Scan type : Progressive
Bits/(Pixel*Frame) : 0.201
Stream size : 175 MiB (99%)
Writing library : x264 core 119
Encoding settings : cabac=1 / ref=1 / deblock=1:0:0 / analyse=0x3:0x3 / me=dia / subme=1 / psy=1 / psy_rd=1.00:0.00 / mixed_ref=0 / me_range=16 / chroma_me=1 / trellis=0 / 8x8dct=1 / cqm=0 / deadzone=21,11 / fast_pskip=1 / chroma_qp_offset=0 / threads=4 / sliced_threads=0 / nr=0 / decimate=1 / interlaced=0 / bluray_compat=0 / constrained_intra=0 / bframes=3 / b_pyramid=2 / b_adapt=1 / b_bias=0 / direct=1 / weightb=1 / open_gop=0 / weightp=1 / keyint=250 / keyint_min=25 / scenecut=40 / intra_refresh=0 / rc=abr / mbtree=0 / bitrate=10400 / ratetol=1.0 / qcomp=0.60 / qpmin=0 / qpmax=69 / qpstep=4 / ip_ratio=1.40 / pb_ratio=1.30 / aq=1:1.00
Audio
ID : 2
Format : AAC
Format/Info : Advanced Audio Codec
Format profile : LC
Codec ID : 40
Duration : 2mn 21s
Bit rate mode : Variable
Bit rate : 151 Kbps
Maximum bit rate : 320 Kbps
Channel(s) : 2 channels
Channel positions : Front: L R
Sampling rate : 44.1 KHz
Compression mode : Lossy
Stream size : 2.55 MiB (1%)
-Скриншоты:
-Время раздачи: 24/7 до 5 скачавших!-
[realmt.org].t362829.torrent 
Торрент: Зарегистрирован [ 2014-06-04 18:59 ] · 70E79EDE902DB384FF71E54C5944C7B2D77DE2CA

Скачать .torrent

Скачать

15 KB

Статус: проверено
Скачан: 0 раз
Размер: 178 MB
Оценка:  - (Голосов: 0)
Поблагодарили: 0  Спасибо
terms.php
Похожие темы
[Профиль] [ЛС]
Быстрый ответ

Имя:

      
Для отправки сообщений необходимо включить JavaScript
Показать сообщения:    
Ответить на тему

Текущее время: 28-Апр 17:16

Часовой пояс: UTC + 3



Вы можете начинать темы
Вы можете отвечать на сообщения
Вы не можете редактировать свои сообщения
Вы не можете удалять свои сообщения
Вы не можете голосовать в опросах
Вы не можете прикреплять файлы к сообщениям
Вы можете скачивать файлы