Сегодня идет свободное скачивание без начисления Download

Принц / The Prince (2014) HDTVRipHDTVRip [H.264/720p-LQ] [Трейлер] [EN]

Ответить на тему
Статистика раздачи
Размер:  19 MB   |    Зарегистрирован:  2 года 11 месяцев   |    Скачан:  0 раз

Полного источника не было: Никогда

 
   
 
 
Автор Сообщение

Bot ®

Стаж: 3 года 9 месяцев

Сообщений: 162153

Создавать темы 27-Июн-2014 07:06

[Цитировать]

-Принц / The Prince (2014) HDTVRip- Год выпуска: 2014
Производство: США
Жанр: Боевик, триллер
Режиссер: Брайан А Миллер
Продюсер: Рэндолл Эмметт, Джордж Фурла, Адам Голдворм
Актеры: Джейсон Патрик, Брюс Уиллис, Джон Кьюсак, Фифти Сент, Рэйн, Джессика Лаундес, Джонатон Шек, Джина Мантенья, Тара Холт, Дон Харви
Описание фильма:
Согласно сюжету, бывший головорез из Лас-Вегаса возвращается домой и обнаруживает, что его дочь похищена.
Язык: Английский
Перевод: Отсутствует
Субтитры: Отсутствуют

Дата мировой премьеры: 22 августа 2014
Продолжительность: 00:01:36
Качество видео: HDTVRip
Видеокодек: MPEG-4 AVC/H.264
Битрейт видео: ~1 497 Kbps
Размер кадра: 1280x720
Аудиокодек: AAC 2.0
Битрейт аудио: 192 kbps
MediaInfo
Format : MPEG-4
Format profile : Base Media / Version 2
Codec ID : mp42
File size : 19.4 MiB
Duration : 1mn 36s
Overall bit rate : 1 691 Kbps
Encoded date : UTC 2014-06-24 17:42:25
Tagged date : UTC 2014-06-24 17:42:25
gsst : 0
gstd : 96200
gssd : BADC21523HH1403737432324917
gshh : r3---sn-3c27ln7l.googlevideo.com
Video
ID : 1
Format : AVC
Format/Info : Advanced Video Codec
Format profile : High@L3.1
Format settings, CABAC : Yes
Format settings, ReFrames : 1 frame
Codec ID : avc1
Codec ID/Info : Advanced Video Coding
Duration : 1mn 36s
Bit rate : 1 497 Kbps
Maximum bit rate : 4 114 Kbps
Width : 1 280 pixels
Height : 720 pixels
Display aspect ratio : 16:9
Frame rate mode : Constant
Frame rate : 23.976 fps
Color space : YUV
Chroma subsampling : 4:2:0
Bit depth : 8 bits
Scan type : Progressive
Bits/(Pixel*Frame) : 0.068
Stream size : 17.2 MiB (88%)
Tagged date : UTC 2014-06-24 17:42:25
Audio
ID : 2
Format : AAC
Format/Info : Advanced Audio Codec
Format profile : LC
Codec ID : 40
Duration : 1mn 36s
Bit rate mode : Variable
Bit rate : 192 Kbps
Maximum bit rate : 201 Kbps
Channel(s) : 2 channels
Channel positions : Front: L R
Sampling rate : 44.1 KHz
Compression mode : Lossy
Stream size : 2.20 MiB (11%)
Title : IsoMedia File Produced by Google, 5-11-2011
Encoded date : UTC 2014-06-24 17:42:25
Tagged date : UTC 2014-06-24 17:42:25
Дополнительная информация:
Режиссёром фильма должен был выступить Сарик Андреасян, отказавшийся от проекта по причине сжатых сроков, отведённых на съёмки.
Скриншоты:
Время раздачи: с 10:00 до 18:30 (до 3-х скачавших)
[realmt.org].t412156.torrent 
Торрент: Зарегистрирован [ 2014-06-27 07:06 ] · 33B82508F696574210E58E72CC83DF9A7D7C4394

Скачать .torrent

Скачать

13 KB

Статус: проверено
Скачан: 0 раз
Размер: 19 MB
Оценка:  - (Голосов: 0)
Поблагодарили: 0  Спасибо
terms.php
Похожие темы
[Профиль] [ЛС]
Быстрый ответ

Имя:

      
Для отправки сообщений необходимо включить JavaScript
Показать сообщения:    
Ответить на тему

Текущее время: 29-Май 10:46

Часовой пояс: UTC + 3



Вы можете начинать темы
Вы можете отвечать на сообщения
Вы не можете редактировать свои сообщения
Вы не можете удалять свои сообщения
Вы не можете голосовать в опросах
Вы не можете прикреплять файлы к сообщениям
Вы можете скачивать файлы