Сегодня идет свободное скачивание без начисления Download

Голодные игры: Сойка-пересмешница. Часть I / The Hunger Games: Mockingjay - Part 1 (2014) HDTVRip [1080p] [Трейлер]

Ответить на тему
Статистика раздачи
Размер:  151 MB   |    Зарегистрирован:  2 года 7 месяцев   |    Скачан:  0 раз

Полного источника не было: Никогда

 
   
 
 
Автор Сообщение

Bot ®

Стаж: 4 года 9 месяцев

Сообщений: 50415

Откуда: с того берега моря

Создавать темы 25-Сен-2014 11:51

[Цитировать]

-Голодные игры: Сойка-пересмешница. Часть I / The Hunger Games: Mockingjay - Part 1 (2014) HDTVRip [1080p] [Трейлер]- -Год выпуска: 2014
Производство: США / Color Force, Lionsgate
Жанр: фантастика, приключения-Режиссер: Френсис Лоуренс
Актеры: Дженнифер Лоуренс, Лиам Хемсворт, Джош Хатчерсон, Джулианна Мур, Филип Сеймур Хоффман, Натали Дормер-Описание фильма:
75-ые Голодные игры изменили все. Китнисс нарушила правила, и непоколебимое до той поры деспотичное правление Капитолия пошатнулось. У людей появилась надежда, и ее символ — Сойка-пересмешница. Теперь, чтобы освободить захваченного в плен Пита и защитить своих близких, Китнисс придется сражаться в настоящих битвах и стать еще сильнее, чем на арене игр.-Язык: Русский
Перевод: Профессиональный (полное дублирование)- -Дата мировой премьеры: 19 ноября 2014
Дата российской премьеры: 20 ноября 2014-Продолжительность: 00:02:01
Качество видео: HDTVRip-Видеокодек: MPEG-4 AVC
Битрейт видео: ~10.4 Mbps
Размер кадра: 1920x1080
Аудиокодек: AAC 2.0
Битрейт аудио: 149 Kbps
MediaInfo
General
Complete name                            : F:\Hunger_Games_Part-1_dub_trl.mp4
Format                                   : MPEG-4
Format profile                           : Base Media
Codec ID                                 : isom
File size                                : 151 MiB
Duration                                 : 2mn 1s
Overall bit rate mode                    : Variable
Overall bit rate                         : 10.4 Mbps
Writing application                      : Lavf55.37.101
Video
ID                                       : 1
Format                                   : AVC
Format/Info                              : Advanced Video Codec
Format profile                           : [url=mailto:High@L4.0]High@L4.0[/url]
Format settings, CABAC                   : Yes
Format settings, ReFrames                : 4 frames
Codec ID                                 : avc1
Codec ID/Info                            : Advanced Video Coding
Duration                                 : 2mn 1s
Bit rate                                 : 10.4 Mbps
Width                                    : 1 920 pixels
Height                                   : 1 080 pixels
Display aspect ratio                     : 16:9
Frame rate mode                          : Constant
Frame rate                               : 23.976 fps
Color space                              : YUV
Chroma subsampling                       : 4:2:0
Bit depth                                : 8 bits
Scan type                                : Progressive
Bits/(Pixel*Frame)                       : 0.209
Stream size                              : 148 MiB (99%)
Writing library                          : x264 core 119
Encoding settings                        : cabac=1 / ref=1 / deblock=1:0:0 / analyse=0x3:0x3 / me=dia / subme=1 / psy=1 / psy_rd=1.00:0.00 / mixed_ref=0 / me_range=16 / chroma_me=1 / trellis=0 / 8x8dct=1 / cqm=0 / deadzone=21,11 / fast_pskip=1 / chroma_qp_offset=0 / threads=4 / sliced_threads=0 / nr=0 / decimate=1 / interlaced=0 / bluray_compat=0 / constrained_intra=0 / bframes=3 / b_pyramid=2 / b_adapt=1 / b_bias=0 / direct=1 / weightb=1 / open_gop=0 / weightp=1 / keyint=250 / keyint_min=23 / scenecut=40 / intra_refresh=0 / rc=abr / mbtree=0 / bitrate=10400 / ratetol=1.0 / qcomp=0.60 / qpmin=0 / qpmax=69 / qpstep=4 / ip_ratio=1.40 / pb_ratio=1.30 / aq=1:1.00
Audio
ID                                       : 2
Format                                   : AAC
Format/Info                              : Advanced Audio Codec
Format profile                           : LC
Codec ID                                 : 40
Duration                                 : 2mn 1s
Duration_LastFrame                       : -11ms
Bit rate mode                            : Variable
Bit rate                                 : 149 Kbps
Maximum bit rate                         : 320 Kbps
Channel(s)                               : 2 channels
Channel positions                        : Front: L R
Sampling rate                            : 44.1 KHz
Compression mode                         : Lossy
Delay relative to video                  : 83ms
Stream size                              : 2.16 MiB (1%)
-Скриншоты:
[realmt.org].t601392.torrent 
Торрент: Зарегистрирован [ 2014-09-25 11:51 ] · B0E589CBAB802B6391862401D3C1A7AD0A67BC18

Скачать .torrent

Скачать

13 KB

Статус: проверено
Скачан: 0 раз
Размер: 151 MB
Оценка:  - (Голосов: 0)
Поблагодарили: 0  Спасибо
terms.php
Похожие темы
[Профиль] [ЛС]
Быстрый ответ

Имя:

      
Для отправки сообщений необходимо включить JavaScript
Показать сообщения:    
Ответить на тему

Текущее время: 26-Апр 22:35

Часовой пояс: UTC + 3



Вы можете начинать темы
Вы можете отвечать на сообщения
Вы не можете редактировать свои сообщения
Вы не можете удалять свои сообщения
Вы не можете голосовать в опросах
Вы не можете прикреплять файлы к сообщениям
Вы можете скачивать файлы