Гаррисон 7 / Garrison 7 (2015) WEBRip [1080p] [Тизер] [EN]

Ответить на тему
Статистика раздачи
Размер:  157 MB   |    Зарегистрирован:  2 года 11 месяцев   |    Скачан:  0 раз
Сидов:  5  [  0 KB/s  ]   Подробная статистика пиров
 
   
 
 
Автор Сообщение

Bot ®

Стаж: 4 года 2 месяца

Сообщений: 162152

Создавать темы 10-Ноя-2014 17:39

[Цитировать]

-Гаррисон 7 / Garrison 7 (2015) WEBRip [1080p] [Тизер] [EN] - Год выпуска: 2015
Производство: Австралия
Жанр: Фантастика
Режиссер: Скотт Брюэр
Актеры: Каспер Ван Дин, Марк Дакаскос, Марджин Холден, Скотт Брюэр, Эктор Луис Бустаманте, Деррик Гиллиам, Тара Ханнивел, Гай Уильямс, Джеймс Ричардс
Описание фильма:
Когда командир элитного спецназа случайно раскрывает коварный план военного заговора, его семью жестоко убивают. Теперь он мишень межгалактического розыска, они не остановятся ни перед чем что бы заставить его замолчать.
Язык: Английский
Перевод: Отсутствует- -Дата мировой премьеры: 16 июля 2015
Дата российской премьеры: -/-
Продолжительность: 00:00:33
Качество видео: WEBRip
Видеокодек: MPEG4-AVC
Битрейт видео: ~40.0 Mbps
Размер кадра: 1920x1080
Аудиокодек: AAC 2.0
Битрейт аудио: 265 Kbps
MediaInfo
General
Complete name                            : E:\Garrison-7-teaser.mp4
Format                                   : MPEG-4
Format profile                           : Base Media / Version 2
Codec ID                                 : mp42
File size                                : 157 MiB
Duration                                 : 33s 65ms
Overall bit rate mode                    : Variable
Overall bit rate                         : 39.9 Mbps
Movie name                               : Garrison-7-teaser
Performer                                : Scott Brewer aka Ryctor Mark Dacascos Casper Van Dien Guy Williams Marjean Holden Hector Bustmante James Richards Nick Pendragon Addam Bramich Haven Scott Brewer Logan Scott Brewer
Genre                                    : Action
ContentType                              : Short Film
Description                              : When an elite special forces commander accidentally uncovers an insidious military conspiracy, his family is brutally murdered. Now the target of an intergalactic manhunt, they will stop at nothing to silence him.
Recorded date                            : 2015/16/07
Encoded date                             : UTC 2014-11-09 19:07:55
Tagged date                              : UTC 2014-11-09 19:18:33
Cover                                    : Yes
ContentRating                            : mpaa|PG-13|300|
HDVideo                                  : Yes
Video
ID                                       : 1
Format                                   : AVC
Format/Info                              : Advanced Video Codec
Format profile                           : [url=mailto:Main@L4.1]Main@L4.1[/url]
Format settings, CABAC                   : Yes
Format settings, ReFrames                : 2 frames
Codec ID                                 : avc1
Codec ID/Info                            : Advanced Video Coding
Duration                                 : 32s 958ms
Source duration                          : 32s 875ms
Bit rate mode                            : Constant
Bit rate                                 : 38.0 Mbps
Nominal bit rate                         : 40.0 Mbps
Maximum bit rate                         : 47.2 Mbps
Width                                    : 1 920 pixels
Height                                   : 1 080 pixels
Display aspect ratio                     : 16:9
Frame rate mode                          : Constant
Frame rate                               : 24.000 fps
Color space                              : YUV
Chroma subsampling                       : 4:2:0
Bit depth                                : 8 bits
Scan type                                : Progressive
Bits/(Pixel*Frame)                       : 0.764
Stream size                              : 149 MiB (95%)
Source stream size                       : 156 MiB (99%)
Language                                 : English
Encoded date                             : UTC 2014-11-09 19:07:55
Tagged date                              : UTC 2014-11-09 19:09:52
Audio
ID                                       : 2
Format                                   : AAC
Format/Info                              : Advanced Audio Codec
Format profile                           : LC
Codec ID                                 : 40
Duration                                 : 33s 65ms
Bit rate mode                            : Variable
Bit rate                                 : 265 Kbps
Maximum bit rate                         : 331 Kbps
Channel(s)                               : 2 channels
Channel positions                        : Front: L R
Sampling rate                            : 44.1 KHz
Compression mode                         : Lossy
Stream size                              : 1.03 MiB (1%)
Title                                    : und
Encoded date                             : UTC 2014-11-09 19:07:55
Tagged date                              : UTC 2014-11-09 19:09:52
Menu #1
00:00:00.000                             : Start
Menu #2
ID                                       : 3
Codec ID                                 : text
Duration                                 : 33s 0ms
Encoded date                             : UTC 2014-11-09 19:18:33
Tagged date                              : UTC 2014-11-09 19:18:33
Скриншоты: Время раздачи: 24/7 до 5 скачавших!
[realmt.org].t647526.torrent 
Торрент: Зарегистрирован [ 2014-11-10 17:39 ] · D2C654C8B9CE974CB97977DE96281A86DB83EF02

Скачать .torrent

Скачать

13 KB

Статус: проверено
Скачан: 0 раз
Размер: 157 MB
Оценка:  - (Голосов: 0)
Поблагодарили: 0  Спасибо
terms.php
Похожие темы
[Профиль] [ЛС]
Быстрый ответ

Имя:

      
Для отправки сообщений необходимо включить JavaScript
Показать сообщения:    
Ответить на тему

Текущее время: 20-Окт 13:46

Часовой пояс: UTC + 3



Вы можете начинать темы
Вы можете отвечать на сообщения
Вы не можете редактировать свои сообщения
Вы не можете удалять свои сообщения
Вы не можете голосовать в опросах
Вы не можете прикреплять файлы к сообщениям
Вы можете скачивать файлы