Сегодня идет свободное скачивание без начисления Download

Инсургент / Insurgent (2015) WEBRip [1080p] [Тизер]

Ответить на тему
Статистика раздачи
Размер:  312 MB   |    Зарегистрирован:  3 года   |    Скачан:  0 раз
Сидов:  72  [  0 KB/s  ]   Личеров:  6  [  0 KB/s  ]   Подробная статистика пиров
 
   
 
 
Автор Сообщение

Bot ®

Стаж: 4 года 3 месяца

Сообщений: 162152

Создавать темы 15-Ноя-2014 17:03

[Цитировать]

-Инсургент / Insurgent (2015) WEBRip [1080p] [Тизер]- Год выпуска: 2015
Производство: США
Жанр: фантастика, боевик
Режиссер: Роберт Швентке
Актеры: Шайлин Вудли, Тео Джеймс, Джей Кортни, Майлс Теллер, Мекхай Файфер, Наоми Уоттс, Дэниел Дэй Ким, Бен Лэмб
Описание фильма:
Беатрис Приор должна противостоять ее внутренним демонам и продолжить борьбу с мощным альянсом, который угрожает разрушить существующие порядки в Чикаго.
Язык: Русский
Перевод: Профессиональный (полное дублирование)- -Дата мировой премьеры: 18 марта 2015
Дата российской премьеры: 19 марта 2015
Продолжительность: 00:01:05
Качество видео: WEBRip
Видеокодек: MPEG4-AVC
Битрейт видео: ~40.0 Mbps
Размер кадра: 1920x1080
Аудиокодек: AAC 2.0
Битрейт аудио: 265 Kbps
MediaInfo
General
Complete name                            : E:\Insurgent.mp4
Format                                   : MPEG-4
Format profile                           : Base Media / Version 2
Codec ID                                 : mp42
File size                                : 312 MiB
Duration                                 : 1mn 5s
Overall bit rate mode                    : Variable
Overall bit rate                         : 40.1 Mbps
Movie name                               : Insurgent
Performer                                : Шайлин Вудли, Тео Джеймс, Джей Кортни, Майлс Теллер, Мекхай Файфер, Наоми Уоттс, Дэниел Дэй Ким, Бен Лэмб
Genre                                    : Action
ContentType                              : Short Film
Recorded date                            : 2015
Encoded date                             : UTC 2014-11-14 20:44:00
Tagged date                              : UTC 2014-11-14 20:58:51
Cover                                    : Yes
ContentRating                            : mpaa|PG-13|300|
HDVideo                                  : Yes
Video
ID                                       : 1
Format                                   : AVC
Format/Info                              : Advanced Video Codec
Format profile                           : [url=mailto:Main@L4.1]Main@L4.1[/url]
Format settings, CABAC                   : Yes
Format settings, ReFrames                : 2 frames
Codec ID                                 : avc1
Codec ID/Info                            : Advanced Video Coding
Duration                                 : 1mn 5s
Source duration                          : 1mn 5s
Bit rate mode                            : Constant
Bit rate                                 : 40.0 Mbps
Maximum bit rate                         : 54.3 Mbps
Width                                    : 1 920 pixels
Height                                   : 1 080 pixels
Display aspect ratio                     : 16:9
Frame rate mode                          : Constant
Frame rate                               : 24.000 fps
Color space                              : YUV
Chroma subsampling                       : 4:2:0
Bit depth                                : 8 bits
Scan type                                : Progressive
Bits/(Pixel*Frame)                       : 0.804
Stream size                              : 297 MiB (95%)
Source stream size                       : 310 MiB (99%)
Language                                 : RU
Encoded date                             : UTC 2014-11-14 20:44:00
Tagged date                              : UTC 2014-11-14 20:48:09
Audio
ID                                       : 2
Format                                   : AAC
Format/Info                              : Advanced Audio Codec
Format profile                           : LC
Codec ID                                 : 40
Duration                                 : 1mn 5s
Bit rate mode                            : Variable
Bit rate                                 : 265 Kbps
Maximum bit rate                         : 352 Kbps
Channel(s)                               : 2 channels
Channel positions                        : Front: L R
Sampling rate                            : 44.1 KHz
Compression mode                         : Lossy
Stream size                              : 2.09 MiB (1%)
Title                                    : und
Encoded date                             : UTC 2014-11-14 20:44:00
Tagged date                              : UTC 2014-11-14 20:48:09
Menu
00:00:00.000                             : Start
Скриншоты: Время раздачи: 24/7 до 5 скачавших!-Пункт правил 5.1
Примечание: выразить уважение автору раздачи и благодарность за релиз можно и нужно кнопкой
От себя: Спасибо за спасибо!
-
[realmt.org].t651877.torrent 
Торрент: Зарегистрирован [ 2014-11-15 17:03 ] · E509AA25CD589C5B5CB9E9DE4256C4C8D81B355E

Скачать .torrent

Скачать

13 KB

Статус: проверено
Скачан: 0 раз
Размер: 312 MB
Оценка:  - (Голосов: 0)
Поблагодарили: 0  Спасибо
terms.php
Похожие темы
[Профиль] [ЛС]
Быстрый ответ

Имя:

      
Для отправки сообщений необходимо включить JavaScript
Показать сообщения:    
Ответить на тему

Текущее время: 20-Ноя 03:23

Часовой пояс: UTC + 3



Вы можете начинать темы
Вы можете отвечать на сообщения
Вы не можете редактировать свои сообщения
Вы не можете удалять свои сообщения
Вы не можете голосовать в опросах
Вы не можете прикреплять файлы к сообщениям
Вы можете скачивать файлы