Сегодня идет свободное скачивание без начисления Download

Кровавая леди Батори / Lady of Csejte (2014) WEBRip [720p] [Трейлер]

Ответить на тему
Статистика раздачи
Размер:  62 MB   |    Зарегистрирован:  2 года 3 месяца   |    Скачан:  0 раз
Сидов:  36  [  0 KB/s  ]   Подробная статистика пиров
 
   
 
 
Автор Сообщение

Bot ®

Стаж: 3 года 6 месяцев

Сообщений: 162156

Создавать темы 17-Ноя-2014 23:11

[Цитировать]

-Кровавая леди Батори / Lady of Csejte (2014) WEBRip [720p] [Трейлер]- Год выпуска: 2014
Производство: Россия, США
Жанр: Ужасы, Триллер-Описание фильма:
В огромном поместье, окруженном лесами и горами, живет прекрасная графиня Елизавета Батори. Она умна и красива, элегантна и учтива. И никто не знает, что в замке знаменитой красавицы творятся страшные вещи…
Режиссер: Андрей Конст
Продюсер: Стивен Шнайдер, Георгий Малков, Гевонд Андреасян
Актеры: Светлана Ходченкова, Павел Деревянко, Изабелль Аллен, Лукас Бонд, Ада Кондееску, Пауль Дьяконеску, Иоан Бранчу, Богдан Фаркас, Валентин Теодосию, Владимир Гросу-Перевод: Не требуется
Субтитры: Отсутствуют-
Дата российской премьеры: Март 2015, «Централ Партнершип»-Продолжительность: 00:01:16
Качество видео: WEBRip
Видео: AVC, 1280x546 (2.35:1), 24.000 fps, 6 563 Kbps (0.392 bit/pixel)
Аудио: AAC LC, 44.1 KHz, 2 ch, 256 Kbps, CBR (English)
MediaInfo:
Формат : QuickTime
Формат/Информация : Original Apple specifications
Размер файла : 62,2 Мбайт
Продолжительность : 1 м. 16 с.
Общий поток : 6823 Кбит/сек
Дата кодирования : UTC 2014-11-05 12:21:06
Дата пометки : UTC 2014-11-05 12:22:30
Библиотека кодирования : Apple QuickTime
Видео
Идентификатор : 1
Формат : AVC
Формат/Информация : Advanced Video Codec
Профиль формата : Baseline@L3.1
Параметр CABAC формата : Нет
Параметр ReFrames формата : 2 кадра
Параметр GOP формата : M=1, N=120
Идентификатор кодека : avc1
Идентификатор кодека/Информация : Advanced Video Coding
Продолжительность : 1 м. 16 с.
Битрейт : 6563 Кбит/сек
Ширина : 1280 пикселей
Высота : 546 пикселей
Высота оригинала : 546 пикселей
Соотношение сторон : 2,35:1
Соотношение сторон в оригинале : 2,35:1
Режим частоты кадров : Постоянный
Частота кадров : 24,000 кадра/сек
Цветовое пространство : YUV
Субдискретизация насыщенности : 4:2:0
Битовая глубина : 8 бит
Тип развёртки : Прогрессивная
Бит/(Пиксели*Кадры) : 0.392
Размер потока : 59,9 Мбайт (96%)
Язык : English
Дата кодирования : UTC 2014-11-05 12:21:06
Дата пометки : UTC 2014-11-05 12:22:30
Основные цвета : BT.709
Характеристики трансфера : BT.709
Коэффициенты матрицы : BT.709
Аудио
Идентификатор : 2
Формат : AAC
Формат/Информация : Advanced Audio Codec
Профиль формата : LC
Идентификатор кодека : 40
Продолжительность : 1 м. 16 с.
Вид битрейта : Постоянный
Битрейт : 256 Кбит/сек
Каналы : 2 канала
Расположение каналов : Front: L R
Частота : 44,1 КГц
Метод сжатия : С потерями
Размер потока : 2,33 Мбайт (4%)
Язык : English
Дата кодирования : UTC 2014-11-05 12:21:06
Дата пометки : UTC 2014-11-05 12:22:30
Скриншоты:
-Время раздачи: с 12:00 до 18:30 до 3-х скачавших
[realmt.org].t653741.torrent 
Торрент: Зарегистрирован [ 2014-11-17 23:11 ] · 6F569981C405117EB6E06179E88A6B7D7879EFC8

Скачать .torrent

Скачать

20 KB

Статус: проверено
Скачан: 0 раз
Размер: 62 MB
Оценка:  - (Голосов: 0)
Поблагодарили: 0  Спасибо
terms.php
Похожие темы
[Профиль] [ЛС]
Быстрый ответ

Имя:

      
Для отправки сообщений необходимо включить JavaScript
Показать сообщения:    
Ответить на тему

Текущее время: 22-Фев 13:44

Часовой пояс: UTC + 3



Вы можете начинать темы
Вы можете отвечать на сообщения
Вы не можете редактировать свои сообщения
Вы не можете удалять свои сообщения
Вы не можете голосовать в опросах
Вы не можете прикреплять файлы к сообщениям
Вы можете скачивать файлы