Сегодня идет свободное скачивание без начисления Download

О чём говорят мужчины. Дилогия (2010-2011) BDRip 720p

Ответить на тему
 
Автор Сообщение

Bot ®

Стаж: 5 лет 1 месяц

Сообщений: 29791

Откуда: СССР

Создавать темы 25-Ноя-2014 11:57

[Цитировать]

О чём говорят мужчины (2010)
Информация о фильме
Название: О чём говорят мужчины
Год выхода: 2010
Жанр: комедия
Режиссер: Дмитрий Дьяченко
В ролях: Леонид Барац, Александр Демидов, Камиль Ларин, Ростислав Хаит, Нонна Гришаева, Нина Русланова, Жанна Фриске, Сергей Никоненко, Федор Добронравов, Андрей Макаревич
О фильме: О чем говорят мужчины? Конечно, о женщинах. Нет, еще о работе, о деньгах, о машинах, о футболе,… но в основном, все-таки, о женщинах. А уж если у них впереди два дня, которые они, вырвавшись из офисов и семей, уехав от всех забот и обязательств, проведут в дороге — два дня, насыщенные событиями и приключениями — то можете быть уверены, что за это время они успеют обсудить немало тем…
И еще. Из этих разговоров — это мы точно знаем — многие женщины узнают о себе очень много нового…

Выпущено: Кинокомпания «Квадрат»
Продолжительность: 01:36:32
Перевод: Оригинал (лицензия)
Файл
Кодек: x264
Качество: BDRip (источник: Blu-ray Disc)
Видео: 1280x690 (1,85:1), 24 fps, 5470 kbps
Аудио: AC-3, 6 ch, 448 kbps
Субтитры: Русские
Скачать: сэмпл
Скриншоты
MI
Общее
Уникальный идентификатор : 205078546973492145078718893009455232205 (0x9A48B1034F8A17A3BC71E7D9E92F34CD)
Полное имя : O.chyom.govoryat.muzhchiny.2010.BDRip.720p.Rus.mkv
Формат : Matroska
Версия формата : Version 2
Размер файла : 3,99 Гбайт
Продолжительность : 1 ч. 36 м.
Общий поток : 5920 Кбит/сек
Название фильма : О чём говорят мужчины (2010)
Дата кодирования : UTC 2014-11-23 07:23:14
Программа кодирования : mkvmerge v5.8.0 ('No Sleep / Pillow') built on Sep 2 2012 15:37:04
Библиотека кодирования : libebml v1.2.3 + libmatroska v1.3.0
Видео
Идентификатор : 1
Формат : AVC
Формат/Информация : Advanced Video Codec
Профиль формата : High@L4.1
Параметр CABAC формата : Да
Параметр ReFrames формата : 9 кадров
Идентификатор кодека : V_MPEG4/ISO/AVC
Продолжительность : 1 ч. 36 м.
Битрейт : 5471 Кбит/сек
Ширина : 1280 пикселей
Высота : 690 пикселей
Соотношение сторон : 1,85:1
Режим частоты кадров : Постоянный
Частота кадров : 24,000 кадра/сек
Цветовое пространство : YUV
Субдискретизация насыщенности : 4:2:0
Битовая глубина : 8 бит
Тип развёртки : Прогрессивная
Бит/(Пиксели*Кадры) : 0.258
Размер потока : 3,61 Гбайт (90%)
Заголовок : Release by AlexKa
Библиотека кодирования : x264 core 142 r2491 24e4fed
Настройки программы : cabac=1 / ref=9 / deblock=1:-3:-3 / analyse=0x3:0x133 / me=umh / subme=11 / psy=1 / psy_rd=1.00:0.00 / mixed_ref=1 / me_range=32 / chroma_me=1 / trellis=2 / 8x8dct=1 / cqm=0 / deadzone=21,11 / fast_pskip=0 / chroma_qp_offset=-2 / threads=12 / lookahead_threads=2 / sliced_threads=0 / nr=0 / decimate=0 / interlaced=0 / bluray_compat=0 / constrained_intra=0 / bframes=9 / b_pyramid=2 / b_adapt=2 / b_bias=0 / direct=3 / weightb=1 / open_gop=0 / weightp=2 / keyint=240 / keyint_min=24 / scenecut=40 / intra_refresh=0 / rc=2pass / mbtree=0 / bitrate=5471 / ratetol=1.0 / qcomp=0.60 / qpmin=0 / qpmax=69 / qpstep=4 / cplxblur=20.0 / qblur=0.5 / ip_ratio=1.40 / pb_ratio=1.30 / aq=1:0.70
Язык : Russian
Аудио
Идентификатор : 2
Формат : AC-3
Формат/Информация : Audio Coding 3
Расширение режима : CM (complete main)
Параметр Endianness формата : Big
Идентификатор кодека : A_AC3
Продолжительность : 1 ч. 36 м.
Вид битрейта : Постоянный
Битрейт : 448 Кбит/сек
Каналы : 6 каналов
Расположение каналов : Front: L C R, Side: L R, LFE
Частота : 48,0 КГц
Битовая глубина : 16 бит
Метод сжатия : С потерями
Размер потока : 309 Мбайт (8%)
Заголовок : Rus
Язык : Russian
Текст
Идентификатор : 3
Формат : UTF-8
Идентификатор кодека : S_TEXT/UTF8
Идентификатор кодека/Информация : UTF-8 Plain Text
Заголовок : Rus
Язык : Russian
Меню
00:00:00.000 : :Chapter 01
00:02:51.875 : :Chapter 02
00:13:42.875 : :Chapter 03
00:23:48.416 : :Chapter 04
00:32:05.916 : :Chapter 05
00:43:22.958 : :Chapter 06
00:54:26.166 : :Chapter 07
01:03:57.041 : :Chapter 08
01:10:42.083 : :Chapter 09
01:18:53.666 : :Chapter 10
01:25:03.291 : :Chapter 11
01:32:03.041 : :Chapter 12
01:36:25.000 : :Chapter 13
О чём ещё говорят мужчины (2011)
Информация о фильме
Название: О чём ещё говорят мужчины
Год выхода: 2011
Жанр: мелодрама, комедия
Режиссер: Дмитрий Дьяченко
В ролях: Леонид Барац, Александр Демидов, Камиль Ларин, Ростислав Хаит, Алёна Бабенко, Елена Подкаминская, Екатерина Вилкова, Виталий Хаев, Анатолий Белый, Денис Шведов
О фильме: Леша, Слава и Камиль в трудную минуту приходят на помощь своему другу Саше. Накануне Нового года он умудрился вступить в конфликт с женой сотрудника силовых структур, и теперь четверо друзей заперлись в офисе рекламного агентства, которым руководит Саша, пытаясь придумать выход из сложившейся ситуации и коротая время в мужских разговорах.

Выпущено: Кинокомпания «Квадрат»
Продолжительность: 01:38:28
Перевод: Оригинал (лицензия)
Файл
Кодек: x264
Качество: BDRip (источник: Blu-ray Disc)
Видео: 1280x544 (2,35:1), 24 fps, 4690 kbps
Аудио: AC-3, 6 ch, 448 kbps
Скачать: сэмпл
Скриншоты
MI
Общее
Уникальный идентификатор : 225369279234565851647593749919565675688 (0xA98C8B5A040A856D8A31A61D31BCFCA8)
Полное имя : O.chyom.eshchyo.govoryat.muzhchiny.2011.BDRip.720p.Rus.mkv
Формат : Matroska
Версия формата : Version 2
Размер файла : 3,53 Гбайт
Продолжительность : 1 ч. 38 м.
Общий поток : 5137 Кбит/сек
Дата кодирования : UTC 2014-11-23 21:15:25
Программа кодирования : mkvmerge v5.8.0 ('No Sleep / Pillow') built on Sep 2 2012 15:37:04
Библиотека кодирования : libebml v1.2.3 + libmatroska v1.3.0
Видео
Идентификатор : 1
Формат : AVC
Формат/Информация : Advanced Video Codec
Профиль формата : High@L4.1
Параметр CABAC формата : Да
Параметр ReFrames формата : 11 кадров
Идентификатор кодека : V_MPEG4/ISO/AVC
Продолжительность : 1 ч. 38 м.
Битрейт : 4688 Кбит/сек
Ширина : 1280 пикселей
Высота : 544 пикселя
Соотношение сторон : 2,35:1
Режим частоты кадров : Постоянный
Частота кадров : 24,000 кадра/сек
Цветовое пространство : YUV
Субдискретизация насыщенности : 4:2:0
Битовая глубина : 8 бит
Тип развёртки : Прогрессивная
Бит/(Пиксели*Кадры) : 0.281
Размер потока : 3,15 Гбайт (89%)
Заголовок : Release by AlexKa
Библиотека кодирования : x264 core 142 r2491 24e4fed
Настройки программы : cabac=1 / ref=11 / deblock=1:-3:-3 / analyse=0x3:0x133 / me=umh / subme=11 / psy=1 / psy_rd=1.00:0.00 / mixed_ref=1 / me_range=32 / chroma_me=1 / trellis=2 / 8x8dct=1 / cqm=0 / deadzone=21,11 / fast_pskip=0 / chroma_qp_offset=-2 / threads=12 / lookahead_threads=3 / sliced_threads=0 / nr=0 / decimate=0 / interlaced=0 / bluray_compat=0 / constrained_intra=0 / bframes=11 / b_pyramid=2 / b_adapt=2 / b_bias=0 / direct=3 / weightb=1 / open_gop=0 / weightp=2 / keyint=240 / keyint_min=24 / scenecut=40 / intra_refresh=0 / rc=2pass / mbtree=0 / bitrate=4688 / ratetol=1.0 / qcomp=0.60 / qpmin=0 / qpmax=69 / qpstep=4 / cplxblur=20.0 / qblur=0.5 / ip_ratio=1.40 / pb_ratio=1.30 / aq=1:0.70
Язык : Russian
Аудио
Идентификатор : 2
Формат : AC-3
Формат/Информация : Audio Coding 3
Расширение режима : CM (complete main)
Параметр Endianness формата : Big
Идентификатор кодека : A_AC3
Продолжительность : 1 ч. 38 м.
Вид битрейта : Постоянный
Битрейт : 448 Кбит/сек
Каналы : 6 каналов
Расположение каналов : Front: L C R, Side: L R, LFE
Частота : 48,0 КГц
Битовая глубина : 16 бит
Метод сжатия : С потерями
Размер потока : 316 Мбайт (9%)
Заголовок : Rus
Язык : Russian
Меню
00:00:00.000 : :Chapter 01
00:09:24.583 : :Chapter 02
00:18:33.708 : :Chapter 03
00:30:38.666 : :Chapter 04
00:52:20.041 : :Chapter 05
01:03:26.291 : :Chapter 06
01:14:54.916 : :Chapter 07
01:25:16.916 : :Chapter 08
x264
1
x264 [info]: frame I:1246 Avg QP:16.49 size:147727
x264 [info]: frame P:30040 Avg QP:19.46 size: 53033
x264 [info]: frame B:107723 Avg QP:21.52 size: 20268
x264 [info]: consecutive B-frames: 1.9% 2.4% 9.4% 19.9% 16.5% 40.1% 5.1% 2.0% 1.8% 0.8%
2
x264 [info]: frame I:1391 Avg QP:17.23 size:124239
x264 [info]: frame P:28426 Avg QP:20.06 size: 45628
x264 [info]: frame B:111979 Avg QP:22.19 size: 17788
x264 [info]: consecutive B-frames: 1.6% 1.7% 7.4% 16.1% 16.4% 40.8% 7.6% 2.2% 3.1% 0.7% 1.0% 1.3%
[Профиль] [ЛС]
Показать сообщения:    
Ответить на тему

Текущее время: 26-Июн 04:48

Часовой пояс: UTC + 3



Вы не можете начинать темы
Вы не можете отвечать на сообщения
Вы не можете редактировать свои сообщения
Вы не можете удалять свои сообщения
Вы не можете голосовать в опросах
Вы не можете прикреплять файлы к сообщениям
Вы не можете скачивать файлы