Сегодня идет свободное скачивание без начисления Download

Звездные войны: Эпизод 7 – Пробуждение силы / Star Wars: Episode VII - The Force Awakens (2015) WEBRip [1080p] [Тизер]

Ответить на тему
Статистика раздачи
Размер:  262 MB   |    Зарегистрирован:  2 года 11 месяцев   |    Скачан:  0 раз

Полного источника не было: 1 год 7 месяцев

 
   
 
 
Автор Сообщение

Bot ®

Стаж: 5 лет 3 месяца

Сообщений: 55298

Откуда: с того берега моря

Создавать темы 28-Ноя-2014 22:23

[Цитировать]

-Звездные войны: Эпизод 7 – Пробуждение силы / Star Wars: Episode VII - The Force Awakens (2015) WEBRip - Год выпуска: 2015
Производство: США / Lucasfilm, Bad Robot, Walt Disney Pictures
Жанр: фантастика, фэнтези, боевик, приключения
Режиссер: Джей Джей Абрамс
Актеры: Харрисон Форд, Энди Серкис, Кэрри Фишер, Донал Глисон, Гвендолин Кристи, Марк Хэмилл, Оскар Айзек, Лупита Нионго, Адам Драйвер, Уорвик Дэвис
Описание фильма:
Действие седьмого эпизода «Звездных войн» развернется через тридцать лет после событий, описанных в «Возвращении Джедая», а в центре истории будут три новых молодых персонажа.
Язык: Русский
Перевод: Профессиональный (полное дублирование)- -Дата мировой премьеры: 17 декабря 2015
Дата российской премьеры: 18 декабря 2015
Продолжительность: 00:01:28
Качество видео: WEBRip
Видеокодек: MPEG-4 AVC
Битрейт видео: ~30.0 Mbps
Размер кадра: 1920x1080
Аудиокодек: АС3 5.1
Битрейт аудио: 448 Kbps
MediaInfo
General
Unique ID                                : 233737737952883716786723270506355168013 (0xAFD84038BBB16AF2BAD212917359130D)
Complete name                            : E:\Star_Wars_Episode _VII_2015_tiz.dub.mkv
Format                                   : Matroska
Format version                           : Version 4 / Version 2
File size                                : 262 MiB
Duration                                 : 1mn 28s
Overall bit rate                         : 24.9 Mbps
Movie name                               : Long Boy for NNM
Encoded date                             : UTC 2014-11-28 19:12:42
Writing application                      : mkvmerge v7.2.0 ('On Every Street') 64bit built on Sep 13 2014 15:52:10
Writing library                          : libebml v1.3.0 + libmatroska v1.4.1
Attachements                             : cover.png
DURATION                                 : 00:01:28.352000000
NUMBER_OF_FRAMES                         : 2761
NUMBER_OF_BYTES                          : 4947712
_STATISTICS_WRITING_APP                  : mkvmerge v7.2.0 ('On Every Street') 64bit built on Sep 13 2014 15:52:10
_STATISTICS_WRITING_DATE_UTC             : 2014-11-28 19:12:42
_STATISTICS_TAGS                         : BPS DURATION NUMBER_OF_FRAMES NUMBER_OF_BYTES
Video
ID                                       : 1
Format                                   : AVC
Format/Info                              : Advanced Video Codec
Format profile                           : [url=mailto:High@L5.0]High@L5.0[/url]
Format settings, CABAC                   : No
Format settings, ReFrames                : 1 frame
Codec ID                                 : V_MPEG4/ISO/AVC
Duration                                 : 1mn 28s
Bit rate                                 : 23.9 Mbps
Nominal bit rate                         : 30.0 Mbps
Width                                    : 1 920 pixels
Height                                   : 1 080 pixels
Display aspect ratio                     : 16:9
Frame rate mode                          : Constant
Frame rate                               : 30.000 fps
Color space                              : YUV
Chroma subsampling                       : 4:2:0
Bit depth                                : 8 bits
Scan type                                : Progressive
Bits/(Pixel*Frame)                       : 0.384
Stream size                              : 252 MiB (96%)
Writing library                          : x264 core 116 r2019 9cc407d
Encoding settings                        : cabac=0 / ref=1 / deblock=1:0:0 / analyse=0x3:0x113 / me=hex / subme=7 / psy=1 / psy_rd=1.00:0.00 / mixed_ref=0 / me_range=16 / chroma_me=1 / trellis=1 / 8x8dct=1 / cqm=0 / deadzone=21,11 / fast_pskip=1 / chroma_qp_offset=-2 / threads=6 / sliced_threads=0 / nr=0 / decimate=1 / interlaced=0 / bluray_compat=0 / constrained_intra=0 / bframes=0 / weightp=2 / keyint=250 / keyint_min=25 / scenecut=40 / intra_refresh=0 / rc_lookahead=40 / rc=2pass / mbtree=1 / bitrate=30000 / ratetol=1.0 / qcomp=0.60 / qpmin=0 / qpmax=69 / qpstep=4 / cplxblur=20.0 / qblur=0.5 / ip_ratio=1.40 / aq=1:1.00
Default                                  : Yes
Forced                                   : No
Audio
ID                                       : 2
Format                                   : AC-3
Format/Info                              : Audio Coding 3
Mode extension                           : CM (complete main)
Format settings, Endianness              : Big
Codec ID                                 : A_AC3
Duration                                 : 1mn 28s
Bit rate mode                            : Constant
Bit rate                                 : 448 Kbps
Channel(s)                               : 6 channels
Channel positions                        : Front: L C R, Side: L R, LFE
Sampling rate                            : 48.0 KHz
Bit depth                                : 16 bits
Compression mode                         : Lossy
Stream size                              : 4.72 MiB (2%)
Language                                 : Russian
Default                                  : Yes
Forced                                   : No
Скриншоты:
[realmt.org].t661486.torrent 
Торрент: Зарегистрирован [ 2014-11-28 22:23 ] · DC52E0FD27725A67848F36DD6623476FFC4B7A18

Скачать .torrent

Скачать

11 KB

Статус: проверено
Скачан: 0 раз
Размер: 262 MB
Оценка:  - (Голосов: 0)
Поблагодарили: 0  Спасибо
terms.php
Похожие темы
[Профиль] [ЛС]
Быстрый ответ

Имя:

      
Для отправки сообщений необходимо включить JavaScript
Показать сообщения:    
Ответить на тему

Текущее время: 19-Ноя 22:37

Часовой пояс: UTC + 3



Вы можете начинать темы
Вы можете отвечать на сообщения
Вы не можете редактировать свои сообщения
Вы не можете удалять свои сообщения
Вы не можете голосовать в опросах
Вы не можете прикреплять файлы к сообщениям
Вы можете скачивать файлы