Сегодня идет свободное скачивание без начисления Download

Левиафан (2014) WEBRip

Ответить на тему
 
Автор Сообщение

Bot ®

Стаж: 1 год 8 месяцев

Сообщений: 4

Создавать темы 15-Сен-2016 16:51

[Цитировать]

Левиафан (2014) WEBRip- Производство: Россия, Нон-стоп Продакшн
Жанр: Драма
Режиссер: Андрей Звягинцев
Продюсер: Александр Роднянский, Сергей Мелькумов, Екатерина Маракулина
Актеры: Алексей Серебряков, Елена Лядова, Владимир Вдовиченков, Роман Мадянов, Анна Уколова, Алексей Розин, Сергей Походаев, Валерий Гришко, Сергей Бачурский, Платон Каменев
Описание фильма:
В центре истории — живущий на севере Николай, который вместе с отцом построил дом и мастерскую. Но его нормальная жизнь рушится под влиянием судьбы.
Перевод: Не требуется (русский)
Субтитры: Вшитые не отключаемые
Язык субтитров: Английский

Рейтинг MPAA: PG-17
Возраст: 18+
Дата мировой премьеры: 23 мая 2014
Дата российской премьеры: 5 февраля 2015, «Двадцатый Век Фокс СНГ», «A Company»
Продолжительность: 02:21:03
Качество видео: WEBRip
Видеокодек: XviD
Битрейт видео: 1948 kb/s
Размер кадра: 720x304
Аудиокодек: AC3 2.0
Битрейт аудио: 128 Kb/s
Награды
Золотой глобус, 2015 год
Номинации (1):
  • Лучший фильм на иностранном языке

Каннский кинофестиваль, 2014 год
Победитель (1):
  • Лучший сценарий

Номинации (1):
  • Золотая пальмовая ветвь
MI
Код:
Общее
Полное имя                               : D:\Мужа\Leviathan.2014.WEBRip.NNM-CLUB.avi
Формат                                   : AVI
Формат/Информация                        : Audio Video Interleave
Профиль формата                          : OpenDML
Размер файла                             : 2,06 Гбайт
Продолжительность                        : 2 ч. 21 м.
Общий поток                              : 2091 Кбит/сек
Программа кодирования                    : VirtualDubMod 1.5.10.3 | (build 2550/release)
Библиотека кодирования                   : VirtualDubMod build 2550/release
Видео
Идентификатор                            : 0
Формат                                   : MPEG-4 Visual
Профиль формата                          : Advanced Simple@L5
Параметр BVOP формата                    : 2
Параметр QPel формата                    : Нет
Параметр GMC формата                     : Без точки перехода
Параметр матрицы формата                 : Default (MPEG)
Идентификатор кодека                     : XVID
Идентификатор кодека/Подсказка           : XviD
Продолжительность                        : 2 ч. 21 м.
Битрейт                                  : 1948 Кбит/сек
Ширина                                   : 720 пикселей
Высота                                   : 304 пикселя
Соотношение сторон                       : 2,35:1
Частота кадров                           : 30,000 кадров/сек
Цветовое пространство                    : YUV
Субдискретизация насыщенности            : 4:2:0
Битовая глубина                          : 8 бит
Тип развёртки                            : Прогрессивная
Метод сжатия                             : С потерями
Бит/(Пиксели*Кадры)                      : 0.297
Размер потока                            : 1,92 Гбайт (93%)
Библиотека кодирования                   : XviD 1.2.1 (UTC 2008-12-04)
Аудио
Идентификатор                            : 1
Формат                                   : AC-3
Формат/Информация                        : Audio Coding 3
Расширение режима                        : CM (complete main)
Параметр Endianness формата              : Big
Идентификатор кодека                     : 2000
Продолжительность                        : 2 ч. 21 м.
Вид битрейта                             : Постоянный
Битрейт                                  : 128 Кбит/сек
Каналы                                   : 2 канала
Расположение каналов                     : Front: L R
Частота                                  : 44,1 КГц
Битовая глубина                          : 16 бит
Метод сжатия                             : С потерями
Размер потока                            : 129 Мбайт (6%)
Выравнивание                             : Разделение по промежуткам
Продолжительность промежутка             : 33  мс. (1,00 видеокадр)
Время предзагрузки промежутка            : 500  мс.
Скриншоты: Время раздачи: 24/7,
до 5 скачавших.
[Профиль] [ЛС]
Показать сообщения:    
Ответить на тему

Текущее время: 17-Янв 22:17

Часовой пояс: UTC + 3



Вы не можете начинать темы
Вы не можете отвечать на сообщения
Вы не можете редактировать свои сообщения
Вы не можете удалять свои сообщения
Вы не можете голосовать в опросах
Вы не можете прикреплять файлы к сообщениям
Вы не можете скачивать файлы