Сегодня идет свободное скачивание без начисления Download

На паузе / Standby(2014) WEB-DLRip

Ответить на тему
 
Автор Сообщение

Bot ®

Стаж: 2 года

Сообщений: 2

Создавать темы 15-Сен-2016 17:45

[Цитировать]

На паузе / Standby (2014) WEB-DLRip- Производство: Ирландия / Black Sheep Productions, Juliette Films
Жанр: Мелодрама, Комедия
Режиссер: Роб Бурк, Ронан Бурк
Актеры: Джессика Паре, Брин Глисон, Стэнли Таунсенд, Франческа Черруо, Йен Ллойд Андерсон, Джон Линн, Тина Келлехер, Ронан Карр, Луиза Харланд, Пол Роу
Описание фильма:
Алану чуть больше двадцати лет, его недавно уволили из банка, и он устраивается работать вместе со своей матерью туристическим консультантом в аэропорту Дублина. Там он сталкивается со своей первой любовью — Элис, которая застряла в аэропорту, ожидая свой рейс до Нью-Йорка. Их с Аланом роман закончился 8 лет назад. Тогда Алан пообещал ей, что однажды приедет в США, но он не сдержал своего обещания, и с тех пор они не разговаривали. Пользуясь случаем, Алан убеждает Элис задержаться в Дублине еще на одну ночь…

Дата мировой премьеры: 14 мая 2014
Дата российской премьеры: 26 февраля 2015, «100 фильм»
Продолжительность: 01:23:06
Качество видео: WEB-DLRip
Перевод: Многоголосый закадровый, профессиональный (Официальное)
Субтитры: Отсутствуют
Видеокодек: Xvid
Битрейт видео: ~1747 Kb/s
Размер кадра: 720x304
Аудио#1: 48,0 kHz, AC3, 2/0 192 kb/s (Русский)
Аудио#2: 48,0 kHz, AC3, 5/1 384 kb/s (Английский)
Сэмпл: Скачать
MediaInfo:
Общее
Полное имя : Na.Pauze.2014.P.WEB-DLRip.1400MB.nnm-club.avi
Формат : AVI
Формат/Информация : Audio Video Interleave
Размер файла : 1,36 Гбайт
Продолжительность : 1 ч. 23 м.
Общий поток : 2337 Кбит/сек
Программа кодирования : VirtualDubMod 1.5.10.2 (build 2540/release)
Библиотека кодирования : VirtualDubMod build 2540/release
Видео
Идентификатор : 0
Формат : MPEG-4 Visual
Профиль формата : Advanced Simple@L5
Параметр BVOP формата : 2
Параметр QPel формата : Нет
Параметр GMC формата : Без точки перехода
Параметр матрицы формата : Default (H.263)
Режим смешивания : Сжатый битовый поток
Идентификатор кодека : XVID
Идентификатор кодека/Подсказка : XviD
Продолжительность : 1 ч. 23 м.
Битрейт : 1747 Кбит/сек
Ширина : 720 пикселей
Высота : 304 пикселя
Соотношение сторон : 2,35:1
Частота кадров : 24,000 кадра/сек
Цветовое пространство : YUV
Субдискретизация насыщенности : 4:2:0
Битовая глубина : 8 бит
Тип развёртки : Прогрессивная
Метод сжатия : С потерями
Бит/(Пиксели*Кадры) : 0.333
Размер потока : 1,01 Гбайт (75%)
Библиотека кодирования : XviD 64
Аудио #1
Идентификатор : 1
Формат : AC-3
Формат/Информация : Audio Coding 3
Расширение режима : CM (complete main)
Параметр Endianness формата : Big
Идентификатор кодека : 2000
Продолжительность : 1 ч. 23 м.
Вид битрейта : Постоянный
Битрейт : 192 Кбит/сек
Каналы : 2 канала
Расположение каналов : Front: L R
Частота : 48,0 КГц
Битовая глубина : 16 бит
Метод сжатия : С потерями
Размер потока : 114 Мбайт (8%)
Выравнивание : Разделение по промежуткам
Продолжительность промежутка : 42 мс. (1,00 видеокадр)
Время предзагрузки промежутка : 500 мс.
Аудио #2
Идентификатор : 2
Формат : AC-3
Формат/Информация : Audio Coding 3
Расширение режима : CM (complete main)
Параметр Endianness формата : Big
Идентификатор кодека : 2000
Продолжительность : 1 ч. 23 м.
Вид битрейта : Постоянный
Битрейт : 384 Кбит/сек
Каналы : 6 каналов
Расположение каналов : Front: L C R, Side: L R, LFE
Частота : 48,0 КГц
Битовая глубина : 16 бит
Метод сжатия : С потерями
Размер потока : 228 Мбайт (16%)
Выравнивание : Разделение по промежуткам
Продолжительность промежутка : 42 мс. (1,00 видеокадр)
Время предзагрузки промежутка : 500 мс.
Скриншоты:
Время раздачи: 24/7 (до 10 скачавших)
[Профиль] [ЛС]
Показать сообщения:    
Ответить на тему

Текущее время: 24-Фев 11:30

Часовой пояс: UTC + 3



Вы не можете начинать темы
Вы не можете отвечать на сообщения
Вы не можете редактировать свои сообщения
Вы не можете удалять свои сообщения
Вы не можете голосовать в опросах
Вы не можете прикреплять файлы к сообщениям
Вы не можете скачивать файлы