Сегодня идет свободное скачивание без начисления Download

Американский ниндзя: Квадрология / American Ninja The Ultimate Collection 1-4 (1985-1990) BDRip 1080p | P, P2, A

Ответить на тему
 
Автор Сообщение

Bot ®

Стаж: 4 года 9 месяцев

Сообщений: 26663

Откуда: СССР

Создавать темы 22-Сен-2016 10:23

[Цитировать]

Американский ниндзя / American Ninja (1985) BDRip 1080p:

Информация о фильме
Название: Американский ниндзя
Оригинальное название: American Ninja
Год выхода: 1985
Жанр: Боевик
Режиссер: Сэм Фёрстенберг
В ролях: Майкл Дудикофф, Стив Джеймс, Джуди Аронсон, Гуч Кук, Джон Фудзиока, Дон Стюарт, Джон ЛаМотта, Тадаши Йамашита, Фил Брок, Тони Кэрреон
О фильме: Джо Армстронг, 18 — летний рядовой филиппинского отряда армии США, сопровождает военный конвой, который подвергается нападению бандитов. В одном из них Джо узнает черного воина — ниндзя. Обороняясь, он инстинктивно начинает использовать технику ниндзюцу.
Эта неожиданно проявившаяся способность вызывает подозрение у командира его отряда и остальных солдат. Распутывая паутину темных интриг, Джо остается один в битве с окружающей его коррупцией. В конце концов, в глубине непроходимых джунглей, Джо раскрывает тайну собственного прошлого, тайну, ведущую его к последнему бою со зловещим предводителем Черных Ниндзя.

Страна: США
Продолжительность: 01:35:52
Перевод: Профессиональный (двухголосый закадровый) x 3, Авторский (одноголосый закадровый) x 4
Файл
Качество: BDRip 1080p
Формат: MKV
Видео кодек: H264
Аудио кодек: AC3
Видео: MPEG4 Video (H264), 1920x1040, 23.976fps, 14.0 Mbps
Аудио #01: Русский: Dolby AC3, 48000 Hz, 2ch, 192 kbps - Двухголосый закадровый, СОЮЗ Видео
Аудио #02: Русский: Dolby AC3, 48000 Hz, 2ch, 192 kbps - Двухголосый закадровый, СТС
Аудио #03: Русский: Dolby AC3, 48000 Hz, 2ch, 192 kbps - Одноголосый закадровый, А. Гаврилов
Аудио #04: Русский: Dolby AC3, 48000 Hz, 2ch, 448 kbps - Одноголосый закадровый, В. Горчаков
Аудио #05: Русский: Dolby AC3, 48000 Hz, 2ch, 192 kbps - Одноголосый закадровый, А. Карповский
Аудио #06: Русский: Dolby AC3, 48000 Hz, 2ch, 192 kbps - Одноголосый закадровый
Аудио #07: Украинский: Dolby AC3, 48000 Hz, 2ch, 192 kbps - Двухголосый закадровый, ICTV
Аудио #08: Английский: Dolby AC3, 48000 Hz, 2ch, 448 kbps
Сэмпл
MediaInfo:
General
Unique ID : 213286542574516464111870369429860925154 (0xA0757E70BFA9F1F2B1E1B5E3DC943EE2)
Complete name : F:DVDRipAmerican.Ninja1-4.renta231985 Американский ниндзя 1.mkv
Format : Matroska
Format version : Version 4 / Version 2
File size : 10.6 GiB
Duration : 1h 35mn
Overall bit rate : 15.9 Mbps
Movie name : 1985 Американский ниндзя / renta23
Encoded date : UTC 2015-09-17 13:47:20
Writing application : mkvmerge v8.1.0 ('Psychedelic Postcard') 32bit
Writing library : libebml v1.3.1 + libmatroska v1.4.2
DURATION : 01:35:52.768000000
NUMBER_OF_FRAMES : 179774
NUMBER_OF_BYTES : 322155008
_STATISTICS_WRITING_APP : mkvmerge v8.1.0 ('Psychedelic Postcard') 32bit
_STATISTICS_WRITING_DATE_UTC : 2015-09-17 13:47:20
_STATISTICS_TAGS : BPS DURATION NUMBER_OF_FRAMES NUMBER_OF_BYTES
Video
ID : 1
Format : AVC
Format/Info : Advanced Video Codec
Format profile : High@L4.1
Format settings, CABAC : Yes
Format settings, ReFrames : 3 frames
Codec ID : V_MPEG4/ISO/AVC
Duration : 1h 35mn
Bit rate : 14.0 Mbps
Width : 1 920 pixels
Height : 1 040 pixels
Display aspect ratio : 1.85:1
Frame rate mode : Constant
Frame rate : 23.976 fps
Color space : YUV
Chroma subsampling : 4:2:0
Bit depth : 8 bits
Scan type : Progressive
Bits/(Pixel*Frame) : 0.292
Stream size : 9.04 GiB (85%)
Title : 1985 Американский ниндзя
Writing library : x264 core 146 r2538 121396c
Encoding settings : cabac=1 / ref=4 / deblock=1:-1:-1 / analyse=0x3:0x113 / me=umh / subme=11 / psy=1 / psy_rd=1.15:0.25 / mixed_ref=1 / me_range=32 / chroma_me=1 / trellis=2 / 8x8dct=1 / cqm=0 / deadzone=21,11 / fast_pskip=0 / chroma_qp_offset=-4 / threads=12 / lookahead_threads=3 / sliced_threads=0 / nr=0 / decimate=0 / interlaced=0 / bluray_compat=0 / constrained_intra=0 / bframes=12 / b_pyramid=1 / b_adapt=2 / b_bias=0 / direct=3 / weightb=1 / open_gop=0 / weightp=2 / keyint=250 / keyint_min=23 / scenecut=40 / intra_refresh=0 / rc_lookahead=50 / rc=2pass / mbtree=1 / bitrate=14000 / ratetol=1.0 / qcomp=0.60 / qpmin=0 / qpmax=69 / qpstep=4 / cplxblur=20.0 / qblur=0.5 / vbv_maxrate=14000 / vbv_bufsize=14000 / nal_hrd=none / filler=0 / ip_ratio=1.40 / aq=1:1.00
Language : English
Default : Yes
Forced : No
Audio #1
ID : 2
Format : AC-3
Format/Info : Audio Coding 3
Mode extension : CM (complete main)
Format settings, Endianness : Big
Codec ID : A_AC3
Duration : 1h 35mn
Bit rate mode : Constant
Bit rate : 192 Kbps
Channel(s) : 2 channels
Channel positions : Front: L R
Sampling rate : 48.0 KHz
Bit depth : 16 bits
Compression mode : Lossy
Stream size : 132 MiB (1%)
Title : Двухголосый закадровый, СОЮЗ Видео
Language : Russian
Default : Yes
Forced : No
Audio #2
ID : 3
Format : AC-3
Format/Info : Audio Coding 3
Mode extension : CM (complete main)
Format settings, Endianness : Big
Codec ID : A_AC3
Duration : 1h 35mn
Bit rate mode : Constant
Bit rate : 192 Kbps
Channel(s) : 2 channels
Channel positions : Front: L R
Sampling rate : 48.0 KHz
Bit depth : 16 bits
Compression mode : Lossy
Stream size : 132 MiB (1%)
Title : Двухголосый закадровый, СТС
Language : Russian
Default : No
Forced : No
Audio #3
ID : 4
Format : AC-3
Format/Info : Audio Coding 3
Mode extension : CM (complete main)
Format settings, Endianness : Big
Codec ID : A_AC3
Duration : 1h 35mn
Bit rate mode : Constant
Bit rate : 192 Kbps
Channel(s) : 2 channels
Channel positions : Front: L R
Sampling rate : 48.0 KHz
Bit depth : 16 bits
Compression mode : Lossy
Stream size : 132 MiB (1%)
Title : Одноголосый закадровый, А. Гаврилов
Language : Russian
Default : No
Forced : No
Audio #4
ID : 5
Format : AC-3
Format/Info : Audio Coding 3
Mode extension : CM (complete main)
Format settings, Endianness : Big
Codec ID : A_AC3
Duration : 1h 35mn
Bit rate mode : Constant
Bit rate : 448 Kbps
Channel(s) : 2 channels
Channel positions : Front: L R
Sampling rate : 48.0 KHz
Bit depth : 16 bits
Compression mode : Lossy
Stream size : 307 MiB (3%)
Title : Одноголосый закадровый, В. Горчаков
Language : Russian
Default : No
Forced : No
Audio #5
ID : 6
Format : AC-3
Format/Info : Audio Coding 3
Mode extension : CM (complete main)
Format settings, Endianness : Big
Codec ID : A_AC3
Duration : 1h 35mn
Bit rate mode : Constant
Bit rate : 192 Kbps
Channel(s) : 2 channels
Channel positions : Front: L R
Sampling rate : 48.0 KHz
Bit depth : 16 bits
Compression mode : Lossy
Stream size : 132 MiB (1%)
Title : Одноголосый закадровый, А. Карповский
Language : Russian
Default : No
Forced : No
Audio #6
ID : 7
Format : AC-3
Format/Info : Audio Coding 3
Mode extension : CM (complete main)
Format settings, Endianness : Big
Codec ID : A_AC3
Duration : 1h 35mn
Bit rate mode : Constant
Bit rate : 192 Kbps
Channel(s) : 2 channels
Channel positions : Front: L R
Sampling rate : 48.0 KHz
Bit depth : 16 bits
Compression mode : Lossy
Stream size : 132 MiB (1%)
Title : Одноголосый закадровый
Language : Russian
Default : No
Forced : No
Audio #7
ID : 8
Format : AC-3
Format/Info : Audio Coding 3
Mode extension : CM (complete main)
Format settings, Endianness : Big
Codec ID : A_AC3
Duration : 1h 35mn
Bit rate mode : Constant
Bit rate : 192 Kbps
Channel(s) : 2 channels
Channel positions : Front: L R
Sampling rate : 48.0 KHz
Bit depth : 16 bits
Compression mode : Lossy
Stream size : 132 MiB (1%)
Title : Двухголосый закадровый, ICTV
Language : Ukrainian
Default : No
Forced : No
Audio #8
ID : 9
Format : AC-3
Format/Info : Audio Coding 3
Mode extension : CM (complete main)
Format settings, Endianness : Big
Codec ID : A_AC3
Duration : 1h 35mn
Bit rate mode : Constant
Bit rate : 448 Kbps
Channel(s) : 2 channels
Channel positions : Front: L R
Sampling rate : 48.0 KHz
Bit depth : 16 bits
Compression mode : Lossy
Stream size : 307 MiB (3%)
Language : English
Default : No
Forced : No
Menu
00:00:00.000 : en:Chapter 00
00:05:00.000 : en:Chapter 01
00:10:00.000 : en:Chapter 02
00:15:00.000 : en:Chapter 03
00:20:00.000 : en:Chapter 04
00:25:00.000 : en:Chapter 05
00:30:00.000 : en:Chapter 06
00:35:00.000 : en:Chapter 07
00:40:00.000 : en:Chapter 08
00:45:00.000 : en:Chapter 09
00:50:00.000 : en:Chapter 10
00:55:00.000 : en:Chapter 11
01:00:00.000 : en:Chapter 12
01:05:00.000 : en:Chapter 13
01:10:00.000 : en:Chapter 14
01:15:00.000 : en:Chapter 15
01:20:00.000 : en:Chapter 16
01:25:00.000 : en:Chapter 17
01:30:00.000 : en:Chapter 18
01:35:00.000 : en:Chapter 19
Американский ниндзя 2 - Схватка / American Ninja 2 - The Confrontation (1987) BDRip 1080p:

Информация о фильме
Название: Американский ниндзя 2: Схватка
Оригинальное название: American Ninja 2: The Confrontation
Год выхода: 1987
Жанр: Боевик
Режиссер: Сэм Фёрстенберг
В ролях: Майкл Дудикофф, Стив Джеймс, Ларри Поиндекстер, Гэри Конуэй, Джефф Челентано, Мишель Боутс, Майкл Стоун, Лен Спэрроухок, Джонатан Пиенаар, Билл Керри
О фильме: Действие происходит на острове Святого Томаса в Карибском море, куда американский наемник Джо Армстронг и сержант Кертис Джексон прибывают для расследования таинственного исчезновения группы морских пехотинцев.
Очень скоро они натыкаются на следы чудовищной операции с наркотиками, руководимой могущественным наркодилером по прозвищу Лев. Он похитил пехотинцев, чтобы с помощью генетики создать из них бойцов — ниндзя.
Пара искателей приключений, на помощь к которым приходит дочь местного ученого Алисия Санборн, сражаются со Львом и его армией ниндзя, чтобы навсегда разрушить его дьявольскую империю…

Страна: США
Продолжительность: 01:30:37
Перевод: Профессиональный (многоголосый закадровый), Профессиональный (двухголосый закадровый) x 2, Авторский (одноголосый закадровый) x 6
Файл
Качество: BDRip 1080p
Формат: MKV
Видео кодек: H264
Аудио кодек: AC3
Видео: MPEG4 Video (H264), 1920x1040, 23.976fps, 14.0 Mbps
Аудио #01: Русский: Dolby AC3, 48000 Hz, 2ch, 192 kbps - Двухголосый закадровый, СОЮЗ Видео
Аудио #02: Русский: Dolby AC3, 48000 Hz, 2ch, 192 kbps - Многоголосый закадровый, СТС
Аудио #03: Русский: Dolby AC3, 48000 Hz, 2ch, 448 kbps - Одноголосый закадровый, В. Горчаков
Аудио #04: Русский: Dolby AC3, 48000 Hz, 2ch, 448 kbps - Одноголосый закадровый, Ю. Немахов
Аудио #05: Русский: Dolby AC3, 48000 Hz, 2ch, 192 kbps - Одноголосый закадровый, А. Гаврилов
Аудио #06: Русский: Dolby AC3, 48000 Hz, 2ch, 192 kbps - Одноголосый закадровый, Ю. Живов
Аудио #07: Русский: Dolby AC3, 48000 Hz, 2ch, 192 kbps - Одноголосый закадровый
Аудио #08: Русский: Dolby AC3, 48000 Hz, 2ch, 192 kbps - Одноголосый закадровый
Аудио #09: Украинский: Dolby AC3, 48000 Hz, 2ch, 192 kbps - Двухголосый закадровый, Inter
Аудио #10: Английский: Dolby AC3, 48000 Hz, 2ch, 448 kbps
Сэмпл
MediaInfo:
General
Unique ID : 200914585506915666269352312275154468475 (0x9726BDDCB8B028398594A1EB1DEB7E7B)
Complete name : F:DVDRipAmerican.Ninja1-4.renta231987 Американский ниндзя 2.mkv
Format : Matroska
Format version : Version 4 / Version 2
File size : 10.4 GiB
Duration : 1h 30mn
Overall bit rate : 16.4 Mbps
Movie name : 1987 Американский ниндзя / renta23
Encoded date : UTC 2015-09-17 14:20:07
Writing application : mkvmerge v8.1.0 ('Psychedelic Postcard') 32bit
Writing library : libebml v1.3.1 + libmatroska v1.4.2
DURATION : 01:29:41.664000000
NUMBER_OF_FRAMES : 168177
NUMBER_OF_BYTES : 301373184
_STATISTICS_WRITING_APP : mkvmerge v8.1.0 ('Psychedelic Postcard') 32bit
_STATISTICS_WRITING_DATE_UTC : 2015-09-17 14:20:07
_STATISTICS_TAGS : BPS DURATION NUMBER_OF_FRAMES NUMBER_OF_BYTES
Video
ID : 1
Format : AVC
Format/Info : Advanced Video Codec
Format profile : High@L4.1
Format settings, CABAC : Yes
Format settings, ReFrames : 3 frames
Codec ID : V_MPEG4/ISO/AVC
Duration : 1h 30mn
Bit rate : 14.0 Mbps
Width : 1 920 pixels
Height : 1 040 pixels
Display aspect ratio : 1.85:1
Frame rate mode : Constant
Frame rate : 23.976 fps
Color space : YUV
Chroma subsampling : 4:2:0
Bit depth : 8 bits
Scan type : Progressive
Bits/(Pixel*Frame) : 0.292
Stream size : 8.49 GiB (82%)
Title : 1987 Американский ниндзя
Writing library : x264 core 146 r2538 121396c
Encoding settings : cabac=1 / ref=4 / deblock=1:-1:-1 / analyse=0x3:0x113 / me=umh / subme=11 / psy=1 / psy_rd=1.15:0.25 / mixed_ref=1 / me_range=32 / chroma_me=1 / trellis=2 / 8x8dct=1 / cqm=0 / deadzone=21,11 / fast_pskip=0 / chroma_qp_offset=-4 / threads=12 / lookahead_threads=3 / sliced_threads=0 / nr=0 / decimate=0 / interlaced=0 / bluray_compat=0 / constrained_intra=0 / bframes=12 / b_pyramid=1 / b_adapt=2 / b_bias=0 / direct=3 / weightb=1 / open_gop=0 / weightp=2 / keyint=250 / keyint_min=23 / scenecut=40 / intra_refresh=0 / rc_lookahead=50 / rc=2pass / mbtree=1 / bitrate=14000 / ratetol=1.0 / qcomp=0.60 / qpmin=0 / qpmax=69 / qpstep=4 / cplxblur=20.0 / qblur=0.5 / vbv_maxrate=14000 / vbv_bufsize=14000 / nal_hrd=none / filler=0 / ip_ratio=1.40 / aq=1:1.00
Language : English
Default : Yes
Forced : No
Audio #1
ID : 2
Format : AC-3
Format/Info : Audio Coding 3
Mode extension : CM (complete main)
Format settings, Endianness : Big
Codec ID : A_AC3
Duration : 1h 30mn
Bit rate mode : Constant
Bit rate : 192 Kbps
Channel(s) : 2 channels
Channel positions : Front: L R
Sampling rate : 48.0 KHz
Bit depth : 16 bits
Compression mode : Lossy
Stream size : 124 MiB (1%)
Title : Двухголосый закадровый, СОЮЗ Видео
Language : Russian
Default : Yes
Forced : No
Audio #2
ID : 3
Format : AC-3
Format/Info : Audio Coding 3
Mode extension : CM (complete main)
Format settings, Endianness : Big
Codec ID : A_AC3
Duration : 1h 30mn
Bit rate mode : Constant
Bit rate : 192 Kbps
Channel(s) : 2 channels
Channel positions : Front: L R
Sampling rate : 48.0 KHz
Bit depth : 16 bits
Compression mode : Lossy
Stream size : 124 MiB (1%)
Title : Многоголосый закадровый, СТС
Language : Russian
Default : No
Forced : No
Audio #3
ID : 4
Format : AC-3
Format/Info : Audio Coding 3
Mode extension : CM (complete main)
Format settings, Endianness : Big
Codec ID : A_AC3
Duration : 1h 30mn
Bit rate mode : Constant
Bit rate : 448 Kbps
Channel(s) : 2 channels
Channel positions : Front: L R
Sampling rate : 48.0 KHz
Bit depth : 16 bits
Compression mode : Lossy
Stream size : 290 MiB (3%)
Title : Одноголосый закадровый, В. Горчаков
Language : Russian
Default : No
Forced : No
Audio #4
ID : 5
Format : AC-3
Format/Info : Audio Coding 3
Mode extension : CM (complete main)
Format settings, Endianness : Big
Codec ID : A_AC3
Duration : 1h 30mn
Bit rate mode : Constant
Bit rate : 448 Kbps
Channel(s) : 2 channels
Channel positions : Front: L R
Sampling rate : 48.0 KHz
Bit depth : 16 bits
Compression mode : Lossy
Stream size : 290 MiB (3%)
Title : Одноголосый закадровый, Ю. Немахов
Language : Russian
Default : No
Forced : No
Audio #5
ID : 6
Format : AC-3
Format/Info : Audio Coding 3
Mode extension : CM (complete main)
Format settings, Endianness : Big
Codec ID : A_AC3
Duration : 1h 30mn
Bit rate mode : Constant
Bit rate : 192 Kbps
Channel(s) : 2 channels
Channel positions : Front: L R
Sampling rate : 48.0 KHz
Bit depth : 16 bits
Compression mode : Lossy
Stream size : 124 MiB (1%)
Title : Одноголосый закадровый, А. Гаврилов
Language : Russian
Default : No
Forced : No
Audio #6
ID : 7
Format : AC-3
Format/Info : Audio Coding 3
Mode extension : CM (complete main)
Format settings, Endianness : Big
Codec ID : A_AC3
Duration : 1h 30mn
Bit rate mode : Constant
Bit rate : 192 Kbps
Channel(s) : 2 channels
Channel positions : Front: L R
Sampling rate : 48.0 KHz
Bit depth : 16 bits
Compression mode : Lossy
Stream size : 124 MiB (1%)
Title : Одноголосый закадровый, Ю. Живов
Language : Russian
Default : No
Forced : No
Audio #7
ID : 8
Format : AC-3
Format/Info : Audio Coding 3
Mode extension : CM (complete main)
Format settings, Endianness : Big
Codec ID : A_AC3
Duration : 1h 30mn
Bit rate mode : Constant
Bit rate : 192 Kbps
Channel(s) : 2 channels
Channel positions : Front: L R
Sampling rate : 48.0 KHz
Bit depth : 16 bits
Compression mode : Lossy
Stream size : 124 MiB (1%)
Title : Одноголосый закадровый
Language : Russian
Default : No
Forced : No
Audio #8
ID : 9
Format : AC-3
Format/Info : Audio Coding 3
Mode extension : CM (complete main)
Format settings, Endianness : Big
Codec ID : A_AC3
Duration : 1h 30mn
Bit rate mode : Constant
Bit rate : 192 Kbps
Channel(s) : 2 channels
Channel positions : Front: L R
Sampling rate : 48.0 KHz
Bit depth : 16 bits
Compression mode : Lossy
Stream size : 124 MiB (1%)
Title : Одноголосый закадровый
Language : Russian
Default : No
Forced : No
Audio #9
ID : 10
Format : AC-3
Format/Info : Audio Coding 3
Mode extension : CM (complete main)
Format settings, Endianness : Big
Codec ID : A_AC3
Duration : 1h 30mn
Bit rate mode : Constant
Bit rate : 192 Kbps
Channel(s) : 2 channels
Channel positions : Front: L R
Sampling rate : 48.0 KHz
Bit depth : 16 bits
Compression mode : Lossy
Stream size : 124 MiB (1%)
Title : Двухголосый закадровый, Inter
Language : Ukrainian
Default : No
Forced : No
Audio #10
ID : 11
Format : AC-3
Format/Info : Audio Coding 3
Mode extension : CM (complete main)
Format settings, Endianness : Big
Codec ID : A_AC3
Duration : 1h 30mn
Bit rate mode : Constant
Bit rate : 448 Kbps
Channel(s) : 2 channels
Channel positions : Front: L R
Sampling rate : 48.0 KHz
Bit depth : 16 bits
Compression mode : Lossy
Stream size : 290 MiB (3%)
Language : English
Default : No
Forced : No
Menu
00:00:00.000 : :Chapter 01
00:08:28.089 : :Chapter 02
00:17:49.484 : :Chapter 03
00:27:08.918 : :Chapter 04
00:37:23.114 : :Chapter 05
00:47:01.985 : :Chapter 06
00:58:17.535 : :Chapter 07
01:08:53.587 : :Chapter 08
01:18:10.852 : :Chapter 09
01:25:48.810 : :Chapter 10
01:30:22.041 : :Chapter 11
Американский ниндзя 3 - Кровавая охота / American Ninja 3 - Blood Hunt (1989) BDRip 1080:

Информация о фильме
Название: Американский ниндзя 3: Кровавая охота
Оригинальное название: American Ninja 3: Blood Hunt
Год выхода: 1989
Жанр: Боевик
Режиссер: Седрик Сандстром
В ролях: Дэвид Брэдли, Стив Джеймс, Марджо Гортнер, Мишель Чан, Иегуда Эфрони, Кэлвин Джанг, Эдриэнн Пирс, Грант Престон, Майк Хафф
О фильме: Шон Дэвидсон, потерявший родителей и воспитанный учителем-японцем в традициях ниндзя, приезжает на международный турнир каратэ. Злоумышленники разрабатывают здесь в секретной лаборатории смертоносный вирус, чтобы испытать его на победителе чемпионата. Но американский ниндзя и двое его друзей сокрушают лабораторию, спасая мир.

Страна: США, Канада, ЮАР
Продолжительность: 01:29:53
Перевод: Профессиональный (многоголосый закадровый) x 2, Профессиональный (двухголосый закадровый), Авторский (одноголосый закадровый) x 6
Файл
Качество: BDRip 1080p
Формат: MKV
Видео кодек: H264
Аудио кодек: AC3
Видео: MPEG4 Video (H264), 1920x1040, 23.976fps, 14.0 Mbps
Аудио #01: Русский: Dolby AC3, 48000 Hz, 2ch, 192 kbps - Многоголосый закадровый, СТС
Аудио #02: Русский: Dolby AC3, 48000 Hz, 2ch, 192 kbps - Многоголосый закадровый, ДТВ
Аудио #03: Русский: Dolby AC3, 48000 Hz, 2ch, 448 kbps - Одноголосый закадровый, Ю. Немахов
Аудио #04: Русский: Dolby AC3, 48000 Hz, 2ch, 448 kbps - Одноголосый закадровый, В. Дохалов
Аудио #05: Русский: Dolby AC3, 48000 Hz, 2ch, 192 kbps - Одноголосый закадровый, М. Иванов
Аудио #06: Русский: Dolby AC3, 48000 Hz, 2ch, 192 kbps - Одноголосый закадровый
Аудио #07: Русский: Dolby AC3, 48000 Hz, 2ch, 192 kbps - Одноголосый закадровый
Аудио #08: Русский: Dolby AC3, 48000 Hz, 2ch, 192 kbps - Одноголосый закадровый
Аудио #09: Украинский: Dolby AC3, 48000 Hz, 2ch, 192 kbps - Двухголосый закадровый, Inter
Аудио #10: Английский: Dolby AC3, 48000 Hz, 2ch, 448 kbps
Сэмпл
MediaInfo:
General
Unique ID : 181913284953945679920771636137536236467 (0x88DB396A3F7A42A58186D5319473ABB3)
Complete name : F:DVDRipAmerican.Ninja1-4.renta23/1989 Американский ниндзя 3 (1).mkv
Format : Matroska
Format version : Version 4 / Version 2
File size : 10.2 GiB
Duration : 1h 29mn
Overall bit rate : 16.3 Mbps
Movie name : 1989 Американский ниндзя / renta23
Encoded date : UTC 2015-09-18 05:20:24
Writing application : mkvmerge v8.1.0 ('Psychedelic Postcard') 32bit
Writing library : libebml v1.3.1 + libmatroska v1.4.2
DURATION : 01:29:52.896000000
NUMBER_OF_FRAMES : 168528
NUMBER_OF_BYTES : 302002176
_STATISTICS_WRITING_APP : mkvmerge v8.1.0 ('Psychedelic Postcard') 32bit
_STATISTICS_WRITING_DATE_UTC : 2015-09-18 05:20:24
_STATISTICS_TAGS : BPS DURATION NUMBER_OF_FRAMES NUMBER_OF_BYTES
Video
ID : 1
Format : AVC
Format/Info : Advanced Video Codec
Format profile : High@L4.1
Format settings, CABAC : Yes
Format settings, ReFrames : 3 frames
Codec ID : V_MPEG4/ISO/AVC
Duration : 1h 29mn
Bit rate : 14.0 Mbps
Width : 1 920 pixels
Height : 1 040 pixels
Display aspect ratio : 1.85:1
Frame rate mode : Constant
Frame rate : 23.976 fps
Color space : YUV
Chroma subsampling : 4:2:0
Bit depth : 8 bits
Scan type : Progressive
Bits/(Pixel*Frame) : 0.292
Stream size : 8.49 GiB (83%)
Title : 1989 Американский ниндзя 3: Кровавая охота
Writing library : x264 core 146 r2538 121396c
Encoding settings : cabac=1 / ref=4 / deblock=1:-1:-1 / analyse=0x3:0x113 / me=umh / subme=11 / psy=1 / psy_rd=1.15:0.25 / mixed_ref=1 / me_range=32 / chroma_me=1 / trellis=2 / 8x8dct=1 / cqm=0 / deadzone=21,11 / fast_pskip=0 / chroma_qp_offset=-4 / threads=12 / lookahead_threads=3 / sliced_threads=0 / nr=0 / decimate=0 / interlaced=0 / bluray_compat=0 / constrained_intra=0 / bframes=12 / b_pyramid=1 / b_adapt=2 / b_bias=0 / direct=3 / weightb=1 / open_gop=0 / weightp=2 / keyint=250 / keyint_min=23 / scenecut=40 / intra_refresh=0 / rc_lookahead=50 / rc=2pass / mbtree=1 / bitrate=14000 / ratetol=1.0 / qcomp=0.60 / qpmin=0 / qpmax=69 / qpstep=4 / cplxblur=20.0 / qblur=0.5 / vbv_maxrate=14000 / vbv_bufsize=14000 / nal_hrd=none / filler=0 / ip_ratio=1.40 / aq=1:1.00
Language : English
Default : Yes
Forced : No
Audio #1
ID : 2
Format : AC-3
Format/Info : Audio Coding 3
Mode extension : CM (complete main)
Format settings, Endianness : Big
Codec ID : A_AC3
Duration : 1h 29mn
Bit rate mode : Constant
Bit rate : 192 Kbps
Channel(s) : 2 channels
Channel positions : Front: L R
Sampling rate : 48.0 KHz
Bit depth : 16 bits
Compression mode : Lossy
Stream size : 123 MiB (1%)
Title : Многоголосый закадровый, СТС
Language : Russian
Default : Yes
Forced : No
Audio #2
ID : 3
Format : AC-3
Format/Info : Audio Coding 3
Mode extension : CM (complete main)
Format settings, Endianness : Big
Codec ID : A_AC3
Duration : 1h 29mn
Bit rate mode : Constant
Bit rate : 192 Kbps
Channel(s) : 2 channels
Channel positions : Front: L R
Sampling rate : 48.0 KHz
Bit depth : 16 bits
Compression mode : Lossy
Stream size : 123 MiB (1%)
Title : Многоголосый закадровый, ДТВ
Language : Russian
Default : No
Forced : No
Audio #3
ID : 4
Format : AC-3
Format/Info : Audio Coding 3
Mode extension : CM (complete main)
Format settings, Endianness : Big
Codec ID : A_AC3
Duration : 1h 29mn
Bit rate mode : Constant
Bit rate : 448 Kbps
Channel(s) : 2 channels
Channel positions : Front: L R
Sampling rate : 48.0 KHz
Bit depth : 16 bits
Compression mode : Lossy
Stream size : 288 MiB (3%)
Title : Одноголосый закадровый, Ю. Немахов
Language : Russian
Default : No
Forced : No
Audio #4
ID : 5
Format : AC-3
Format/Info : Audio Coding 3
Mode extension : CM (complete main)
Format settings, Endianness : Big
Codec ID : A_AC3
Duration : 1h 29mn
Bit rate mode : Constant
Bit rate : 192 Kbps
Channel(s) : 2 channels
Channel positions : Front: L R
Sampling rate : 48.0 KHz
Bit depth : 16 bits
Compression mode : Lossy
Stream size : 123 MiB (1%)
Title : Одноголосый закадровый, В. Дохалов
Language : Russian
Default : No
Forced : No
Audio #5
ID : 6
Format : AC-3
Format/Info : Audio Coding 3
Mode extension : CM (complete main)
Format settings, Endianness : Big
Codec ID : A_AC3
Duration : 1h 29mn
Bit rate mode : Constant
Bit rate : 192 Kbps
Channel(s) : 2 channels
Channel positions : Front: L R
Sampling rate : 48.0 KHz
Bit depth : 16 bits
Compression mode : Lossy
Stream size : 123 MiB (1%)
Title : Одноголосый закадровый, М. Иванов
Language : Russian
Default : No
Forced : No
Audio #6
ID : 7
Format : AC-3
Format/Info : Audio Coding 3
Mode extension : CM (complete main)
Format settings, Endianness : Big
Codec ID : A_AC3
Duration : 1h 29mn
Bit rate mode : Constant
Bit rate : 192 Kbps
Channel(s) : 2 channels
Channel positions : Front: L R
Sampling rate : 48.0 KHz
Bit depth : 16 bits
Compression mode : Lossy
Stream size : 123 MiB (1%)
Title : Одноголосый закадровый
Language : Russian
Default : No
Forced : No
Audio #7
ID : 8
Format : AC-3
Format/Info : Audio Coding 3
Mode extension : CM (complete main)
Format settings, Endianness : Big
Codec ID : A_AC3
Duration : 1h 29mn
Bit rate mode : Constant
Bit rate : 192 Kbps
Channel(s) : 2 channels
Channel positions : Front: L R
Sampling rate : 48.0 KHz
Bit depth : 16 bits
Compression mode : Lossy
Stream size : 123 MiB (1%)
Title : Одноголосый закадровый
Language : Russian
Default : No
Forced : No
Audio #8
ID : 9
Format : AC-3
Format/Info : Audio Coding 3
Mode extension : CM (complete main)
Format settings, Endianness : Big
Codec ID : A_AC3
Duration : 1h 29mn
Bit rate mode : Constant
Bit rate : 192 Kbps
Channel(s) : 2 channels
Channel positions : Front: L R
Sampling rate : 48.0 KHz
Bit depth : 16 bits
Compression mode : Lossy
Stream size : 123 MiB (1%)
Title : Одноголосый закадровый
Language : Russian
Default : No
Forced : No
Audio #9
ID : 10
Format : AC-3
Format/Info : Audio Coding 3
Mode extension : CM (complete main)
Format settings, Endianness : Big
Codec ID : A_AC3
Duration : 1h 29mn
Bit rate mode : Constant
Bit rate : 192 Kbps
Channel(s) : 2 channels
Channel positions : Front: L R
Sampling rate : 48.0 KHz
Bit depth : 16 bits
Compression mode : Lossy
Stream size : 123 MiB (1%)
Title : Двухголосый закадровый, Inter
Language : Ukrainian
Default : No
Forced : No
Audio #10
ID : 11
Format : AC-3
Format/Info : Audio Coding 3
Mode extension : CM (complete main)
Format settings, Endianness : Big
Codec ID : A_AC3
Duration : 1h 29mn
Bit rate mode : Constant
Bit rate : 448 Kbps
Channel(s) : 2 channels
Channel positions : Front: L R
Sampling rate : 48.0 KHz
Bit depth : 16 bits
Compression mode : Lossy
Stream size : 288 MiB (3%)
Language : English
Default : No
Forced : No
Menu
00:00:00.000 : en:Chapter 01
00:07:54.182 : en:Chapter 02
00:23:58.603 : en:Chapter 03
00:37:39.966 : en:Chapter 04
00:50:35.991 : en:Chapter 05
00:59:37.282 : en:Chapter 06
01:11:15.729 : en:Chapter 07
01:21:57.162 : en:Chapter 08
01:29:50.968 : en:Chapter 09
Американский ниндзя 4 - Полное уничтожение / American Ninja 4 - The Annihilation (1990) BDRip 1080p:

Информация о фильме
Название: Американский ниндзя 4: Полное уничтожение
Оригинальное название: American Ninja 4: The Annihilation
Год выхода: 1990
Жанр: Боевик
Режиссер: Седрик Сандстром
В ролях: Майкл Дудикофф, Дэвид Брэдли, Джеймс Бут, Дуэйн Александр, Кен Гампу, Робин Стилл, Рон Смержак, Кили МакКланг, Джоди Абрахамс
О фильме: Бывший полковник, садист и убийца, тренирует террористов и ниндзя шейха из какого-то арабского государства, задумавшего взорвать Нью-Йорк при помощи изготовленной в тайной лаборатории миниатюрной атомной бомбы. Команда подразделения «Дельта», посланная уничтожить злодеев, потерпела поражение, а оставшиеся в живых стали заложниками.
Полицейского-ниндзю вместе с напарником посылают с заданием обезвредить маньяков. В самый тяжелый момент к нашим героям присоединится самый первый и главный американский ниндзя. Вместе они разносят на куски целую армию ниндзя и прочих бандитов.

Страна: США
Продолжительность: 01:39:37
Перевод: Профессиональный (двухголосый закадровый) x 3, Авторский (одноголосый закадровый) x 6
Файл
Качество: BDRip 1080p
Формат: MKV
Видео кодек: H264
Аудио кодек: AC3
Видео: MPEG4 Video (H264), 1920x1040, 23.976fps, 12.0 Mbps
Аудио #01: Русский: Dolby AC3, 48000 Hz, 2ch, 192 kbps - Двухголосый закадровый, ДТВ
Аудио #02: Русский: Dolby AC3, 48000 Hz, 2ch, 192 kbps - Двухголосый закадровый, НТВ+
Аудио #03: Русский: Dolby AC3, 48000 Hz, 2ch, 192 kbps - Одноголосый закадровый, М. Иванов
Аудио #04: Русский: Dolby AC3, 48000 Hz, 2ch, 192 kbps - Одноголосый закадровый, Ю. Немахов
Аудио #05: Русский: Dolby AC3, 48000 Hz, 2ch, 192 kbps - Одноголосый закадровый, Ю. Живов
Аудио #06: Русский: Dolby AC3, 48000 Hz, 2ch, 192 kbps - Одноголосый закадровый, А. Марченко
Аудио #07: Русский: Dolby AC3, 48000 Hz, 2ch, 192 kbps - Одноголосый закадровый, Экшн-студио
Аудио #08: Русский: Dolby AC3, 48000 Hz, 2ch, 192 kbps - Одноголосый закадровый
Аудио #09: Украинский: Dolby AC3, 48000 Hz, 2ch, 192 kbps - Двухголосый закадровый, ICTV
Аудио #10: Английский: Dolby AC3, 48000 Hz, 2ch, 448 kbps
Сэмпл
MediaInfo:
General
Unique ID : 210663949493919068988765422697887345828 (0x9E7C669E52C40F57BB9C6F899208ACA4)
Complete name : F:DVDRipAmerican.Ninja1-4.renta231990 Американский ниндзя 4.mkv
Format : Matroska
Format version : Version 4 / Version 2
File size : 9.86 GiB
Duration : 1h 39mn
Overall bit rate : 14.2 Mbps
Movie name : 1990 Американский ниндзя / renta23
Encoded date : UTC 2015-09-18 18:44:13
Writing application : mkvmerge v8.1.0 ('Psychedelic Postcard') 32bit
Writing library : libebml v1.3.1 + libmatroska v1.4.2
DURATION : 01:39:36.576000000
NUMBER_OF_FRAMES : 186768
NUMBER_OF_BYTES : 334688256
_STATISTICS_WRITING_APP : mkvmerge v8.1.0 ('Psychedelic Postcard') 32bit
_STATISTICS_WRITING_DATE_UTC : 2015-09-18 18:44:13
_STATISTICS_TAGS : BPS DURATION NUMBER_OF_FRAMES NUMBER_OF_BYTES
Video
ID : 1
Format : AVC
Format/Info : Advanced Video Codec
Format profile : High@L4.1
Format settings, CABAC : Yes
Format settings, ReFrames : 3 frames
Codec ID : V_MPEG4/ISO/AVC
Duration : 1h 39mn
Bit rate : 12.0 Mbps
Width : 1 920 pixels
Height : 1 040 pixels
Display aspect ratio : 1.85:1
Frame rate mode : Constant
Frame rate : 23.976 fps
Color space : YUV
Chroma subsampling : 4:2:0
Bit depth : 8 bits
Scan type : Progressive
Bits/(Pixel*Frame) : 0.251
Stream size : 8.15 GiB (83%)
Title : 1990 Американский ниндзя 4 - Полное уничтожение
Writing library : x264 core 146 r2538 121396c
Encoding settings : cabac=1 / ref=4 / deblock=1:-1:-1 / analyse=0x3:0x113 / me=umh / subme=11 / psy=1 / psy_rd=1.15:0.25 / mixed_ref=1 / me_range=32 / chroma_me=1 / trellis=2 / 8x8dct=1 / cqm=0 / deadzone=21,11 / fast_pskip=0 / chroma_qp_offset=-4 / threads=12 / lookahead_threads=3 / sliced_threads=0 / nr=0 / decimate=0 / interlaced=0 / bluray_compat=0 / constrained_intra=0 / bframes=12 / b_pyramid=1 / b_adapt=2 / b_bias=0 / direct=3 / weightb=1 / open_gop=0 / weightp=2 / keyint=250 / keyint_min=23 / scenecut=40 / intra_refresh=0 / rc_lookahead=50 / rc=2pass / mbtree=1 / bitrate=12000 / ratetol=1.0 / qcomp=0.60 / qpmin=0 / qpmax=69 / qpstep=4 / cplxblur=20.0 / qblur=0.5 / vbv_maxrate=14000 / vbv_bufsize=14000 / nal_hrd=none / filler=0 / ip_ratio=1.40 / aq=1:1.00
Language : English
Default : Yes
Forced : No
Audio #1
ID : 2
Format : AC-3
Format/Info : Audio Coding 3
Mode extension : CM (complete main)
Format settings, Endianness : Big
Codec ID : A_AC3
Duration : 1h 39mn
Bit rate mode : Constant
Bit rate : 192 Kbps
Channel(s) : 2 channels
Channel positions : Front: L R
Sampling rate : 48.0 KHz
Bit depth : 16 bits
Compression mode : Lossy
Stream size : 137 MiB (1%)
Title : Двухголосый закадровый, ДТВ
Language : Russian
Default : Yes
Forced : No
Audio #2
ID : 3
Format : AC-3
Format/Info : Audio Coding 3
Mode extension : CM (complete main)
Format settings, Endianness : Big
Codec ID : A_AC3
Duration : 1h 39mn
Bit rate mode : Constant
Bit rate : 192 Kbps
Channel(s) : 2 channels
Channel positions : Front: L R
Sampling rate : 48.0 KHz
Bit depth : 16 bits
Compression mode : Lossy
Stream size : 137 MiB (1%)
Title : Двухголосый закадровый, НТВ+
Language : Russian
Default : No
Forced : No
Audio #3
ID : 4
Format : AC-3
Format/Info : Audio Coding 3
Mode extension : CM (complete main)
Format settings, Endianness : Big
Codec ID : A_AC3
Duration : 1h 39mn
Bit rate mode : Constant
Bit rate : 192 Kbps
Channel(s) : 2 channels
Channel positions : Front: L R
Sampling rate : 48.0 KHz
Bit depth : 16 bits
Compression mode : Lossy
Stream size : 137 MiB (1%)
Title : Одноголосый закадровый, М. Иванов
Language : Russian
Default : No
Forced : No
Audio #4
ID : 5
Format : AC-3
Format/Info : Audio Coding 3
Mode extension : CM (complete main)
Format settings, Endianness : Big
Codec ID : A_AC3
Duration : 1h 39mn
Bit rate mode : Constant
Bit rate : 192 Kbps
Channel(s) : 2 channels
Channel positions : Front: L R
Sampling rate : 48.0 KHz
Bit depth : 16 bits
Compression mode : Lossy
Stream size : 137 MiB (1%)
Title : Одноголосый закадровый, Ю. Немахов
Language : Russian
Default : No
Forced : No
Audio #5
ID : 6
Format : AC-3
Format/Info : Audio Coding 3
Mode extension : CM (complete main)
Format settings, Endianness : Big
Codec ID : A_AC3
Duration : 1h 39mn
Bit rate mode : Constant
Bit rate : 192 Kbps
Channel(s) : 2 channels
Channel positions : Front: L R
Sampling rate : 48.0 KHz
Bit depth : 16 bits
Compression mode : Lossy
Stream size : 137 MiB (1%)
Title : Одноголосый закадровый, Ю. Живов
Language : Russian
Default : No
Forced : No
Audio #6
ID : 7
Format : AC-3
Format/Info : Audio Coding 3
Mode extension : CM (complete main)
Format settings, Endianness : Big
Codec ID : A_AC3
Duration : 1h 39mn
Bit rate mode : Constant
Bit rate : 192 Kbps
Channel(s) : 2 channels
Channel positions : Front: L R
Sampling rate : 48.0 KHz
Bit depth : 16 bits
Compression mode : Lossy
Stream size : 137 MiB (1%)
Title : Одноголосый закадровый, А. Марченко
Language : Russian
Default : No
Forced : No
Audio #7
ID : 8
Format : AC-3
Format/Info : Audio Coding 3
Mode extension : CM (complete main)
Format settings, Endianness : Big
Codec ID : A_AC3
Duration : 1h 39mn
Bit rate mode : Constant
Bit rate : 192 Kbps
Channel(s) : 2 channels
Channel positions : Front: L R
Sampling rate : 48.0 KHz
Bit depth : 16 bits
Compression mode : Lossy
Stream size : 137 MiB (1%)
Title : Одноголосый закадровый, Экшн-студио
Language : Russian
Default : No
Forced : No
Audio #8
ID : 9
Format : AC-3
Format/Info : Audio Coding 3
Mode extension : CM (complete main)
Format settings, Endianness : Big
Codec ID : A_AC3
Duration : 1h 39mn
Bit rate mode : Constant
Bit rate : 192 Kbps
Channel(s) : 2 channels
Channel positions : Front: L R
Sampling rate : 48.0 KHz
Bit depth : 16 bits
Compression mode : Lossy
Stream size : 137 MiB (1%)
Title : Одноголосый закадровый
Language : Russian
Default : No
Forced : No
Audio #9
ID : 10
Format : AC-3
Format/Info : Audio Coding 3
Mode extension : CM (complete main)
Format settings, Endianness : Big
Codec ID : A_AC3
Duration : 1h 39mn
Bit rate mode : Constant
Bit rate : 192 Kbps
Channel(s) : 2 channels
Channel positions : Front: L R
Sampling rate : 48.0 KHz
Bit depth : 16 bits
Compression mode : Lossy
Stream size : 137 MiB (1%)
Title : Двухголосый закадровый, ICTV
Language : Ukrainian
Default : No
Forced : No
Audio #10
ID : 11
Format : AC-3
Format/Info : Audio Coding 3
Mode extension : CM (complete main)
Format settings, Endianness : Big
Codec ID : A_AC3
Duration : 1h 39mn
Bit rate mode : Constant
Bit rate : 448 Kbps
Channel(s) : 2 channels
Channel positions : Front: L R
Sampling rate : 48.0 KHz
Bit depth : 16 bits
Compression mode : Lossy
Stream size : 319 MiB (3%)
Language : English
Default : No
Forced : No
Menu
00:00:00.000 : en:Chapter 01
00:11:43.661 : en:Chapter 02
00:21:58.483 : en:Chapter 03
00:33:30.925 : en:Chapter 04
00:46:28.452 : en:Chapter 05
01:05:33.846 : en:Chapter 06
01:20:05.759 : en:Chapter 07
01:31:26.481 : en:Chapter 08
01:39:35.010 : en:Chapter 09
[Профиль] [ЛС]
Показать сообщения:    
Ответить на тему

Текущее время: 22-Фев 13:41

Часовой пояс: UTC + 3



Вы не можете начинать темы
Вы не можете отвечать на сообщения
Вы не можете редактировать свои сообщения
Вы не можете удалять свои сообщения
Вы не можете голосовать в опросах
Вы не можете прикреплять файлы к сообщениям
Вы не можете скачивать файлы