Сегодня идет свободное скачивание без начисления Download

В сердце моря / In the Heart of the Sea (2015) WEBRip [1080p] [Трейлер]

Ответить на тему
Статистика раздачи
Размер:  280 MB   |    Зарегистрирован:  3 месяца 25 дней   |    Скачан:  0 раз
Сидов:  2  [  0 KB/s  ]   Подробная статистика пиров
 
   
 
 
Автор Сообщение

Bot ®

Стаж: 1 год 3 месяца

Сообщений: 4

Создавать темы 23-Сен-2016 13:45

[Цитировать]

В сердце моря / In the Heart of the Sea (2015) WEBRip - Год выпуска: 2015
Производство: США / Cott Productions, Enelmar Productions, A.I.E., Imagine Entertainment
Жанр: Драма
Режиссер: Рон Ховард
Актеры: Крис Хемсворт, Шарлотта Райли, Бенджамин Уокер, Фрэнк Диллэйн, Том Холлэнд, Пол Андерсон
Описание фильма:
В 1819 году американский корабль «Эссекс» с командой из двух десятков человек на борту отправился из порта в штате Массачусетс на китобойный промысел. Осенью 1820-го успешная на протяжении полутора лет охота была прервана атакой гигантского кашалота на судно, в результате чего морякам пришлось пересесть в шлюпки. В течение трех с лишним месяцев они боролись за выживание посреди океана…-В основу фильма положены реальные события!-Язык: Русский
Перевод: Профессиональный (полное дублирование)- -Дата мировой премьеры: 12 марта 2015
Дата российской премьеры: 12 марта 2015, «Каро-Премьер»
Продолжительность: 00:02:10
Качество видео: WEBRip
Видеокодек: MPEG-4 AVC
Битрейт видео: ~18.0 Mbps
Размер кадра: 1920x1080
Аудиокодек: АС3 5.1
Битрейт аудио: 448 Kbps
MediaInfo
Код:
General
Unique ID                   : 222116994959209219274152574110852549149 (0xA71A2D5B55FC713B0743EC0514318A1D)
Complete name               : F:\IN-THE-HEART-OF-THE-SEA_TLR_RUSSIAN_DUB_1080p.mkv
Format                      : Matroska
Format version              : Version 4 / Version 2
File size                   : 280 MiB
Duration                    : 2mn 10s
Overall bit rate            : 18.0 Mbps
Writing application         : Lavf55.37.101
Writing library             : Lavf55.37.101
Video
ID                          : 1
Format                      : AVC
Format/Info                 : Advanced Video Codec
Format profile              : Baseline@L4.1
Format settings, CABAC      : No
Format settings, ReFrames   : 1 frame
Codec ID                    : V_MPEG4/ISO/AVC
Duration                    : 2mn 10s
Bit rate                    : 18.0 Mbps
Width                       : 1 920 pixels
Height                      : 1 080 pixels
Display aspect ratio        : 16:9
Frame rate mode             : Constant
Frame rate                  : 25.000 fps
Color space                 : YUV
Chroma subsampling          : 4:2:0
Bit depth                   : 8 bits
Scan type                   : Progressive
Bits/(Pixel*Frame)          : 0.347
Stream size                 : 268 MiB (96%)
Writing library             : x264 core 119
Encoding settings           : cabac=0 / ref=1 / deblock=0:0:0 / analyse=0:0 / me=dia / subme=0 / psy=1 / psy_rd=1.00:0.00 / mixed_ref=0 / me_range=16 / chroma_me=1 / trellis=0 / 8x8dct=0 / cqm=0 / deadzone=21,11 / fast_pskip=1 / chroma_qp_offset=0 / threads=4 / sliced_threads=0 / nr=0 / decimate=1 / interlaced=0 / bluray_compat=0 / constrained_intra=0 / bframes=0 / weightp=0 / keyint=250 / keyint_min=25 / scenecut=0 / intra_refresh=0 / rc=abr / mbtree=0 / bitrate=18000 / ratetol=1.0 / qcomp=0.60 / qpmin=0 / qpmax=69 / qpstep=4 / ip_ratio=1.40 / aq=0
Language                    : English
Default                     : Yes
Forced                      : No
Encoded date                : UTC 2014-10-14 16:30:45
HANDLER_NAME                : Apple Alias Data Handler
Audio
ID                          : 2
Format                      : AC-3
Format/Info                 : Audio Coding 3
Mode extension              : CM (complete main)
Format settings, Endianness : Big
Codec ID                    : A_AC3
Duration                    : 2mn 10s
Bit rate mode               : Constant
Bit rate                    : 448 Kbps
Channel(s)                  : 6 channels
Channel positions           : Front: L C R, Side: L R, LFE
Sampling rate               : 48.0 KHz
Bit depth                   : 16 bits
Compression mode            : Lossy
Delay relative to video     : -5ms
Stream size                 : 6.99 MiB (2%)
Language                    : English
Default                     : Yes
Forced                      : No
Encoded date                : UTC 2014-10-14 16:30:45
HANDLER_NAME                : Apple Alias Data Handler
Скриншоты: Время раздачи: 24/7 до 5 скачавших!-Пункт правил 5.1
Примечание: выразить уважение автору раздачи и благодарность за релиз можно и нужно кнопкой
От себя: Спасибо за спасибо!
-
[realmt.org].t738978.torrent 
Торрент: Зарегистрирован [ 2016-09-23 13:45 ] · 59C9D3D388E56FB7C1628CF2CB0CCAB2FB8B6297

Скачать .torrent

Скачать

12 KB

Статус: проверено
Скачан: 0 раз
Размер: 280 MB
Оценка:  - (Голосов: 0)
Поблагодарили: 0  Спасибо
terms.php
Похожие темы
[Профиль] [ЛС]
Быстрый ответ

Имя:

      
Для отправки сообщений необходимо включить JavaScript
Показать сообщения:    
Ответить на тему

Текущее время: 18-Янв 19:07

Часовой пояс: UTC + 3



Вы можете начинать темы
Вы можете отвечать на сообщения
Вы не можете редактировать свои сообщения
Вы не можете удалять свои сообщения
Вы не можете голосовать в опросах
Вы не можете прикреплять файлы к сообщениям
Вы можете скачивать файлы