Сегодня идет свободное скачивание без начисления Download

Гринч - похититель Рождества / How the Grinch Stole Christmas (2000) BDRemux [H.264/1080p] [Remastered]

Ответить на тему
 
Автор Сообщение

Bot ®

Стаж: 1 год 5 месяцев

Сообщений: 2408

Создавать темы 23-Дек-2016 14:59

[Цитировать]

Гринч - похититель Рождества / How the Grinch Stole Christmas (2000) BDRemux [H.264/1080p]
« All Whos beware: He's mean and green! »
- Производство: США, Германия / Universal Pictures, Imagine Entertainment, LUNI Productions GmbH and Company KG
Жанр: Фэнтези, Комедия, Семейный
Режиссер: Рон Ховард
Актеры: Джим Керри, Тейлор Момсен, Келли, Джеффри Тэмбор, Кристин Барански, Билл Ирвин, Молли Шеннон, Клинт Ховард, Джош Райан Эванс, Джереми Ховард, Минди Стерлинг, Рэйчел Уинфри, Рэнс Ховард, Ти-Джей Тайн, Надя Пионилла
Описание: Жил-был в городе Ктограде человечек, и звали его - Гринч. Был он весь зеленый и волосатый, никто его не любил. Обиделся Гринч на ктовичей и ушел жить на одинокую, обдуваемую всеми ветрами гору. Сидел там в своей пещере и злился на весь свет. Больше всего Гринч ненавидел Рождество. В то время, как все население Ктограда веселилось от души, барометр и без того всегда плохого настроения Гринча показывал нечто ужасное. Каждое Рождество становилось для зеленого отшельника страшной пыткой. И вот однажды злобный житель горы решил покончить с этим праздником раз и навсегда. Пока беззаботные ктовичи сладко спали впредпраздничную ночь, вероломный Гринч решил украсть у горожан их Рождество.

Возраст: 0+ (для любой зрительской аудитории)
Рейтинг MPAA: PG (рекомендуется присутствие родителей)
Продолжительность: 01:44:56
Качество видео: BDRemux
Перевод: Дублированный, профессиональный (многоголосый закадровый), авторский (одноголосый закадровый)
Вид субтитров: Вшитые, отключаемые
Язык субтитров: Русский (Forced, Full), Английский
Видео: AVC/H.264, 29.7 Mbps, 1920x1080
Аудио 1: DTS 5.1, 768 Kbps, 48.0 KHz - Русский (DUB, Blu-ray CEE)
Аудио 2: AC3 2.0, 192 Kbps, 48.0 KHz - Русский (MVO, Премьер-Видео)
Аудио 3: DTS 5.1, 1509 Kbps, 48.0 KHz - Русский (MVO, Карусель 1)
Аудио 4: DTS 5.1, 1509 Kbps, 48.0 KHz - Русский (MVO, Карусель 2)
Аудио 5: DTS 5.1, 1509 Kbps, 48.0 KHz - Русский (AVO, Ю. Живов)
Аудио 6: DTS-HD MA 5.1, 4217 Kbps, 48.0 KHz - Английский (Оригинал)
MediaInfo
Код: выделить все
Общее
Полное имя                               : Гринч - похититель Рождества.mkv
Формат                                   : Matroska
Версия формата                           : Version 4 / Version 2
Размер файла                             : 28,9 Гбайт
Продолжительность                        : 1 ч. 44 м.
Режим общего битрейта                    : Переменный
Общий поток                              : 39,5 Мбит/сек
Дата кодирования                         : UTC 2016-12-12 21:57:17
Программа кодирования                    : mkvmerge v9.2.0 ('Photograph') 32bit
Библиотека кодирования                   : libebml v1.3.3 + libmatroska v1.4.4
Видео
Идентификатор                            : 1
Формат                                   : AVC
Формат/Информация                        : Advanced Video Codec
Профиль формата                          : High@L4.1
Параметр CABAC формата                   : Да
Параметр ReFrames формата                : 4 кадра
Параметр GOP формата                     : M=3, N=12
Идентификатор кодека                     : V_MPEG4/ISO/AVC
Продолжительность                        : 1 ч. 44 м.
Вид битрейта                             : Переменный
Битрейт                                  : 29,7 Мбит/сек
Максимальный битрейт                     : 32,0 Мбит/сек
Ширина                                   : 1920 пикселей
Высота                                   : 1080 пикселей
Соотношение сторон                       : 16:9
Режим частоты кадров                     : Постоянный
Частота кадров                           : 23,976 (24000/1001) кадра/сек
Цветовое пространство                    : YUV
Субдискретизация насыщенности            : 4:2:0
Битовая глубина                          : 8 бит
Тип развёртки                            : Прогрессивная
Бит/(Пиксели*Кадры)                      : 0.598
Размер потока                            : 21,8 Гбайт (75%)
Заголовок                                : Гринч - похититель Рождества (2000)
Язык                                     : English
Default                                  : Нет
Forced                                   : Нет
Аудио #1
Идентификатор                            : 2
Формат                                   : DTS
Формат/Информация                        : Digital Theater Systems
Режим                                    : 16
Параметр Endianness формата              : Big
Идентификатор кодека                     : A_DTS
Продолжительность                        : 1 ч. 44 м.
Вид битрейта                             : Постоянный
Битрейт                                  : 768 Кбит/сек
Каналы                                   : 6 каналов
Расположение каналов                     : Front: L C R, Side: L R, LFE
Частота                                  : 48,0 КГц
Частота кадров                           : 93,750 кадра/сек (512 spf)
Битовая глубина                          : 24 бит
Метод сжатия                             : С потерями
Размер потока                            : 576 Мбайт (2%)
Заголовок                                : DTS (Дублированный) Blu-ray CEE
Язык                                     : Russian
Default                                  : Да
Forced                                   : Нет
Аудио #2
Идентификатор                            : 3
Формат                                   : AC-3
Формат/Информация                        : Audio Coding 3
Расширение режима                        : CM (complete main)
Параметр Endianness формата              : Big
Идентификатор кодека                     : A_AC3
Продолжительность                        : 1 ч. 44 м.
Вид битрейта                             : Постоянный
Битрейт                                  : 192 Кбит/сек
Каналы                                   : 2 канала
Расположение каналов                     : Front: L R
Частота                                  : 48,0 КГц
Частота кадров                           : 31,250 кадров/сек (1536 spf)
Битовая глубина                          : 16 бит
Метод сжатия                             : С потерями
Размер потока                            : 144 Мбайт (0%)
Заголовок                                : AC3 (Многоголосый) Премьер-Видео
Язык                                     : Russian
Default                                  : Нет
Forced                                   : Нет
Аудио #3
Идентификатор                            : 4
Формат                                   : DTS
Формат/Информация                        : Digital Theater Systems
Режим                                    : 16
Параметр Endianness формата              : Big
Идентификатор кодека                     : A_DTS
Продолжительность                        : 1 ч. 44 м.
Вид битрейта                             : Постоянный
Битрейт                                  : 1509 Кбит/сек
Каналы                                   : 6 каналов
Расположение каналов                     : Front: L C R, Side: L R, LFE
Частота                                  : 48,0 КГц
Частота кадров                           : 93,750 кадра/сек (512 spf)
Битовая глубина                          : 24 бит
Метод сжатия                             : С потерями
Размер потока                            : 1,11 Гбайт (4%)
Заголовок                                : DTS (Многоголосый) Карусель 1
Язык                                     : Russian
Default                                  : Нет
Forced                                   : Нет
Аудио #4
Идентификатор                            : 5
Формат                                   : DTS
Формат/Информация                        : Digital Theater Systems
Режим                                    : 16
Параметр Endianness формата              : Big
Идентификатор кодека                     : A_DTS
Продолжительность                        : 1 ч. 44 м.
Вид битрейта                             : Постоянный
Битрейт                                  : 1510 Кбит/сек
Каналы                                   : 6 каналов
Расположение каналов                     : Front: L C R, Side: L R, LFE
Частота                                  : 48,0 КГц
Частота кадров                           : 93,750 кадра/сек (512 spf)
Битовая глубина                          : 24 бит
Метод сжатия                             : С потерями
Размер потока                            : 1,11 Гбайт (4%)
Заголовок                                : DTS (Многоголосый) Карусель 2
Язык                                     : Russian
Default                                  : Нет
Forced                                   : Нет
Аудио #5
Идентификатор                            : 6
Формат                                   : DTS
Формат/Информация                        : Digital Theater Systems
Режим                                    : 16
Параметр Endianness формата              : Big
Идентификатор кодека                     : A_DTS
Продолжительность                        : 1 ч. 44 м.
Вид битрейта                             : Постоянный
Битрейт                                  : 1509 Кбит/сек
Каналы                                   : 6 каналов
Расположение каналов                     : Front: L C R, Side: L R, LFE
Частота                                  : 48,0 КГц
Частота кадров                           : 93,750 кадра/сек (512 spf)
Битовая глубина                          : 24 бит
Метод сжатия                             : С потерями
Размер потока                            : 1,11 Гбайт (4%)
Заголовок                                : DTS (Одноголосый) Ю. Живов
Язык                                     : Russian
Default                                  : Нет
Forced                                   : Нет
Аудио #6
Идентификатор                            : 7
Формат                                   : DTS
Формат/Информация                        : Digital Theater Systems
Профиль формата                          : MA / Core
Режим                                    : 16
Параметр Endianness формата              : Big
Идентификатор кодека                     : A_DTS
Продолжительность                        : 1 ч. 44 м.
Вид битрейта                             : Переменный / Постоянный
Битрейт                                  : 4217 Кбит/сек / 1509 Кбит/сек
Каналы                                   : 6 каналов
Расположение каналов                     : Front: L C R, Side: L R, LFE
Частота                                  : 48,0 КГц
Частота кадров                           : 93,750 кадра/сек (512 spf)
Битовая глубина                          : 24 бит
Метод сжатия                             : Без потерь / Lossy
Размер потока                            : 3,09 Гбайт (11%)
Заголовок                                : DTS-HD MA (Оригинал)
Язык                                     : English
Default                                  : Нет
Forced                                   : Нет
Текст #1
Идентификатор                            : 8
Формат                                   : PGS
Режим смешивания                         : zlib
Идентификатор кодека                     : S_HDMV/PGS
Идентификатор кодека/Информация          : Picture based subtitle format used on BDs/HD-DVDs
Продолжительность                        : 1 ч. 41 м.
Битрейт                                  : 1609 бит/сек
Count of elements                        : 372
Размер потока                            : 1,17 Мбайт (0%)
Заголовок                                : Русские (Форсированные)
Язык                                     : Russian
Default                                  : Да
Forced                                   : Нет
Текст #2
Идентификатор                            : 9
Формат                                   : PGS
Режим смешивания                         : zlib
Идентификатор кодека                     : S_HDMV/PGS
Идентификатор кодека/Информация          : Picture based subtitle format used on BDs/HD-DVDs
Продолжительность                        : 1 ч. 43 м.
Битрейт                                  : 10,0 Кбит/сек
Count of elements                        : 2503
Размер потока                            : 7,45 Мбайт (0%)
Заголовок                                : Русские
Язык                                     : Russian
Default                                  : Нет
Forced                                   : Нет
Текст #3
Идентификатор                            : 10
Формат                                   : PGS
Режим смешивания                         : zlib
Идентификатор кодека                     : S_HDMV/PGS
Идентификатор кодека/Информация          : Picture based subtitle format used on BDs/HD-DVDs
Продолжительность                        : 1 ч. 43 м.
Битрейт                                  : 11,4 Кбит/сек
Count of elements                        : 2842
Размер потока                            : 8,47 Мбайт (0%)
Заголовок                                : Английские
Язык                                     : English
Default                                  : Нет
Forced                                   : Нет
Дополнительная информация
» Джим Керри возненавидел желтые контактные линзы, которые ему приходилось надевать во время съемок. Они были настолько неудобными, что некоторые сцены пришлось снимать без них, а уже позднее с помощью компьютерной графики глаза Джима приобретали соответствующий цвет.
» Как-то раз режиссер картины Рон Ховард пришел на съемочную площадку пораньше, нацепил на себя костюм Гринча, провел 3 часа в гримерке и в таком виде проработал весь съемочный день. Джим Керри, увидев своего «двойника», пришел в бешенство, по ошибке приняв режиссера за собственного дублера. Узнав, кто скрывается за гримом, Джим не смог сдержать эмоций и проникся огромным уважением к Рону.
» На то, чтобы загримировать Джима Керри, уходило примерно по три часа в начале каждого съемочного дня.
» Роль Гринча могли исполнить Джек Николсон и Эдди Мёрфи. Также на роль Гринча хотели взять Кристофера Ллойда, но тот отказался из-за болезни.
» Энтони Хопкинс озвучил и записал весь закадровый текст за один день.
» При работе над картиной потребовалось: применение работы гримеров — 8000 раз, бутафорских предметов — 300 штук, конфетных тростников — 1938 штук, мраморной крошки, используемой в качестве снега — 69 тонн, сценических костюмов — 443.
» 4 декабря 2000 года компания Konami выпустила одноименную игру для консоли Sony Playstation.
Скриншоты:
[Профиль] [ЛС]
Показать сообщения:    
Ответить на тему

Текущее время: 12-Дек 11:37

Часовой пояс: UTC + 3



Вы не можете начинать темы
Вы не можете отвечать на сообщения
Вы не можете редактировать свои сообщения
Вы не можете удалять свои сообщения
Вы не можете голосовать в опросах
Вы не можете прикреплять файлы к сообщениям
Вы не можете скачивать файлы