Полигон 27 (2013) WEBDLRip

Ответить на тему
Статистика раздачи
Размер:  1,44 GB   |    Зарегистрирован:  8 месяцев 30 дней   |    Скачан:  2 раза
Сидов:  100  [  0 KB/s  ]   Личеров:  42  [  0 KB/s  ]   Подробная статистика пиров
 
   
 
 
Автор Сообщение

Bot ®

Стаж: 5 лет 4 месяца

Сообщений: 31642

Откуда: СССР

Создавать темы 25-Дек-2016 08:07

[Цитировать]

Информация о фильме
Название: Полигон 27
Год выхода: 2013
Жанр: Фантастика, постапокалипсис
Режиссёр: Артем Мирошин
В ролях: Виктория Зогий, Никита Мокиев, Егор Медведев, Дмитрий Олейник, Олег Рябков, Олег Марков, Игорь Файман, Алексей Ганзей, Влад Миллер, Максим Перминов
О фильме: Постядерный мир. Среди руин старого города возвышается город — убежище «Новый Хабаровск». В руки молодого парня и девушки попадает важная информация о местоположении технологий, с помощью которых можно восстановить экологию планеты. Оставшись без помощи и поддержки, они вынуждены совершить путешествие к этому месту и раскрыть заговор нависший над городом...

Страна: Россия
Студия:
Продолжительность: 01:19:14
Перевод: Не требуется (оригинальный)
Файл
Формат: avi
Качество: WEBDLRip (WEBDL.1080)
Видео: XviD, 720х304, 23.976fps, 2399kbps
Аудио: AC3 Dolby Digital, 2ch, 44100Hz, 192kbps
MediaInfo
Общее
Полное имя : Poligon.27.2013.O.WEBDLRip.1400.CurHaJI.avi
Формат : AVI
Формат/Информация : Audio Video Interleave
Размер файла : 1,44 Гбайт
Продолжительность : 1 ч. 19 м.
Общий поток : 2601 Кбит/сек
Название фильма : Poligon.27.2013.O.WEBDLRip.1400.CurHaJI
Программа кодирования : VirtualDubMod 1.5.10.3 | www.virtualdub-fr.org || (build 2550/release)
Библиотека кодирования : VirtualDub build 35491/release
Видео
Идентификатор : 0
Формат : MPEG-4 Visual
Профиль формата : Advanced Simple@L5
Параметр BVOP формата : 1
Параметр QPel формата : Нет
Параметр GMC формата : Без точки перехода
Параметр матрицы формата : Выборочная
Идентификатор кодека : XVID
Идентификатор кодека/Подсказка : XviD
Продолжительность : 1 ч. 19 м.
Битрейт : 2399 Кбит/сек
Ширина : 720 пикселей
Высота : 304 пикселя
Соотношение сторон : 2,35:1
Частота кадров : 23,976 (24000/1001) кадра/сек
Цветовое пространство : YUV
Субдискретизация насыщенности : 4:2:0
Битовая глубина : 8 бит
Тип развёртки : Прогрессивная
Метод сжатия : С потерями
Бит/(Пиксели*Кадры) : 0.457
Размер потока : 1,33 Гбайт (92%)
Библиотека кодирования : XviD 73
Аудио
Идентификатор : 1
Формат : AC-3
Формат/Информация : Audio Coding 3
Расширение режима : CM (complete main)
Параметр Endianness формата : Big
Идентификатор кодека : 2000
Продолжительность : 1 ч. 19 м.
Вид битрейта : Постоянный
Битрейт : 192 Кбит/сек
Каналы : 2 канала
Расположение каналов : Front: L R
Частота : 44,1 КГц
Частота кадров : 28,711 кадров/сек (1536 spf)
Битовая глубина : 16 бит
Метод сжатия : С потерями
Размер потока : 109 Мбайт (7%)
Выравнивание : Разделение по промежуткам
Продолжительность промежутка : 42 мс. (1,00 видеокадр)
Время предзагрузки промежутка : 500 мс.
Скриншоты
[realmt.org].t811710.torrent 
Торрент: Зарегистрирован [ 2016-12-25 08:07 ] · 33A7616EDF643392FC5D9DEFA0EA2B9CD1DF0CF1

Скачать .torrent

Скачать

15 KB

Статус: проверено
Скачан: 2 раз
Размер: 1,44 GB
Оценка:  - (Голосов: 0)
Поблагодарили: 1  Спасибо   (список)
terms.php
Похожие темы
[Профиль] [ЛС]
Быстрый ответ

Имя:

      
Для отправки сообщений необходимо включить JavaScript
Показать сообщения:    
Ответить на тему

Текущее время: 24-Сен 17:08

Часовой пояс: UTC + 3



Вы можете начинать темы
Вы можете отвечать на сообщения
Вы не можете редактировать свои сообщения
Вы не можете удалять свои сообщения
Вы не можете голосовать в опросах
Вы не можете прикреплять файлы к сообщениям
Вы можете скачивать файлы