Сегодня идет свободное скачивание без начисления Download

28 панфиловцев (2016) WEB-DLRip-AVC | iTunes

Ответить на тему
Статистика раздачи
Размер:  1,9 GB   |    Зарегистрирован:  10 месяцев 29 дней   |    Скачан:  0 раз
Сидов:  125  [  0 KB/s  ]   Личеров:  207  [  0 KB/s  ]   Подробная статистика пиров
 
   
 
 
Автор Сообщение

Bot ®

Стаж: 5 лет 6 месяцев

Сообщений: 32715

Откуда: СССР

Создавать темы 26-Дек-2016 07:41

[Цитировать]

Информация о фильме
Название: 28 панфиловцев
Год выпуска: 2016
Жанр: Военный, драма
Режиссер: Ким Дружинин, Андрей Шальопа
В ролях: Александр Устюгов, Яков Кучеревский, Азамат Нигманов, Олег Фёдоров, Алексей Морозов, Антон Кузнецов, Алексей Лонгин, Максим Белбородов, Дмитрий Мурашев, Виталий Коваленко
О фильме:
Осенью 1941-го года немецкие части, стоявшие возле Волоколамска, отделяло от Москвы каких-нибудь два часа по шоссе. Однако, на этом шоссе стояла 316-я стрелковая дивизия под командованием генерала И. В. Панфилова. Этот военачальник обладал настолько высоким авторитетом среди личного состава, что бойцы дивизии сами называли себя панфиловцами. А дивизию — панфиловской.


Страна: Россия
Студия: 28 панфиловцев, Libyan Palette Studios
Продолжительность: 02:00:37
Перевод: Не требуется (русский) | iTunes
Файл
Качество: WEB-DLRip (AVC)
Видео: MPEG-4 AVC, 1870 Кбит/с, 1024x428
Аудио: AC3, 6 ch, 384 Кбит/с
MI
General
Unique ID : 248502406986350463295358861495210718287 (0xBAF3D29B98FF29039254C6999F35B44F)
Complete name : D:Dvadtsat.vosem.panfilovtsev.2016.0.WEB-DLRip.AVC.ExKinoRay.mkv
Format : Matroska
Format version : Version 2
File size : 1.90 GiB
Duration : 2 h 0 min
Overall bit rate : 2 255 kb/s
Movie name : 28 panfilovtsev (2016) from ExKinoRay
Encoded date : UTC 2016-12-26 00:49:59
Writing application : mkvmerge v7.6.0 ('Garden of Dreams') 32bit built on Feb 11 2015 00:18:47
Writing library : libebml v1.3.1 + libmatroska v1.4.2
Video
ID : 1
Format : AVC
Format/Info : Advanced Video Codec
Format profile : High@L4.1
Format settings, CABAC : Yes
Format settings, ReFrames : 12 frames
Codec ID : V_MPEG4/ISO/AVC
Duration : 2 h 0 min
Bit rate : 1 870 kb/s
Width : 1 024 pixels
Height : 428 pixels
Display aspect ratio : 2.40:1
Frame rate mode : Constant
Frame rate : 24.000 FPS
Color space : YUV
Chroma subsampling : 4:2:0
Bit depth : 8 bits
Scan type : Progressive
Bits/(Pixel*Frame) : 0.178
Stream size : 1.54 GiB (81%)
Title : Enigma
Writing library : x264 core 144 r2525 40bb568
Encoding settings : cabac=1 / ref=12 / deblock=1:-2:-2 / analyse=0x3:0x113 / me=umh / subme=10 / psy=1 / psy_rd=1.05:0.10 / mixed_ref=1 / me_range=32 / chroma_me=1 / trellis=2 / 8x8dct=1 / cqm=0 / deadzone=21,11 / fast_pskip=1 / chroma_qp_offset=-3 / threads=12 / lookahead_threads=2 / sliced_threads=0 / nr=0 / decimate=1 / interlaced=0 / bluray_compat=0 / constrained_intra=0 / bframes=9 / b_pyramid=2 / b_adapt=2 / b_bias=0 / direct=3 / weightb=1 / open_gop=0 / weightp=2 / keyint=240 / keyint_min=24 / scenecut=40 / intra_refresh=0 / rc_lookahead=40 / rc=2pass / mbtree=0 / bitrate=1870 / ratetol=1.0 / qcomp=0.60 / qpmin=0 / qpmax=51 / qpstep=4 / cplxblur=20.0 / qblur=0.5 / vbv_maxrate=50000 / vbv_bufsize=62500 / nal_hrd=none / filler=0 / ip_ratio=1.40 / pb_ratio=1.30 / aq=1:1.00
Default : Yes
Forced : No
Color range : Limited
Color primaries : BT.709
Transfer characteristics : BT.709
Matrix coefficients : BT.709
Audio
ID : 2
Format : AC-3
Format/Info : Audio Coding 3
Mode extension : CM (complete main)
Format settings, Endianness : Big
Codec ID : A_AC3
Duration : 2 h 0 min
Bit rate mode : Constant
Bit rate : 384 kb/s
Channel(s) : 6 channels
Channel positions : Front: L C R, Side: L R, LFE
Sampling rate : 48.0 kHz
Frame rate : 31.250 FPS (1536 spf)
Compression mode : Lossy
Stream size : 331 MiB (17%)
Language : Russian
Default : Yes
Forced : No
Menu
00:00:00.000 : en:1
00:06:28.666 : en:2
00:13:30.207 : en:3
00:20:32.207 : en:4
00:27:03.957 : en:5
00:33:34.290 : en:6
00:40:40.415 : en:7
00:48:05.248 : en:8
00:55:16.373 : en:9
01:02:22.998 : en:10
01:10:09.039 : en:11
01:18:04.164 : en:12
01:25:17.997 : en:13
01:32:36.997 : en:14
01:40:55.830 : en:15
[realmt.org].t812492.torrent 
Торрент: Зарегистрирован [ 2016-12-26 07:41 ] · 66B15B2C6D198C7EE8834F94F22949D673707906

Скачать .torrent

Скачать

20 KB

Статус: проверено
Скачан: 0 раз
Размер: 1,9 GB
Оценка:  - (Голосов: 0)
Поблагодарили: 1  Спасибо   (список)
terms.php
Похожие темы
[Профиль] [ЛС]
Быстрый ответ

Имя:

      
Для отправки сообщений необходимо включить JavaScript
Показать сообщения:    
Ответить на тему

Текущее время: 25-Ноя 05:01

Часовой пояс: UTC + 3



Вы можете начинать темы
Вы можете отвечать на сообщения
Вы не можете редактировать свои сообщения
Вы не можете удалять свои сообщения
Вы не можете голосовать в опросах
Вы не можете прикреплять файлы к сообщениям
Вы можете скачивать файлы