28 панфиловцев (2016) WEB-DLRip-AVC | iTunes

Ответить на тему
Статистика раздачи
Размер:  1,91 GB   |    Зарегистрирован:  6 месяцев 29 дней   |    Скачан:  0 раз

Полного источника не было: 5 месяцев 4 дня

 
   
 
 
Автор Сообщение

Bot ®

Стаж: 5 лет 2 месяца

Сообщений: 30785

Откуда: СССР

Создавать темы 26-Дек-2016 07:41

[Цитировать]

Информация о фильме
Название: 28 панфиловцев
Год выпуска: 2016
Страна: Россия
Жанр: военный, драма-Перевод: оригинал [iTunes]
Продолжительность: 02:00:37-Режиссер: Ким Дружинин , Андрей Шальопа
В ролях: Александр Устюгов (красноармеец Иван Москаленко), Яков Кучеревский (сержант Иван Добробабин), Азамат Нигманов (Мусабек Сенгирбаев), Олег Фёдоров (старшина Григорий Шемякин), Алексей Морозов (политрук Василий Клочков), Антон Кузнецов, Алексей Лонгин (Гундилович), Максим Белбородов, Дмитрий Мурашев, Виталий Коваленко, Сергей Агафонов, Дмитрий Цуцкин-Описание:
Осенью 1941-го года немецкие части, стоявшие возле Волоколамска, отделяло от Москвы каких-нибудь два часа по шоссе. Однако, на этом шоссе стояла 316-я стрелковая дивизия под командованием генерала И. В. Панфилова. Этот военачальник обладал настолько высоким авторитетом среди личного состава, что бойцы дивизии сами называли себя панфиловцами. А дивизию - панфиловской.-Рейтинг:
-Качество: WEB-DLRip-AVC
Формат: MKV
Видео: AVC, 1024x428 (2.40:1), 1883 kbps, 24 fps, 0,179 bpp
Аудио: русский / AC3 / 5.1 / 48 kHz / 384 kbps / ||
Семпл-
ОтчетМедиаИнфо
General
Unique ID : 204695368457207741644658926559845345515 (0x99FEE4DA7DC0CC99A7E81E66E056E8EB)
Complete name : E:Dvadtsat.vosem.panfilovtsev.2016.WEB-DLRip-AVC.by.White Smoke.R.G.Resident.mkv
Format : Matroska
Format version : Version 4 / Version 2
File size : 1.91 GiB
Duration : 2 h 0 min
Overall bit rate : 2 269 kb/s
Movie name : Dvadtsat.vosem.panfilovtsev.2016.WEB-DLRip-AVC.by.White Smoke.R.G.Resident.mkv
Encoded date : UTC 2016-12-26 04:03:00
Writing application : mkvmerge v6.8.0 ('Theme for Great Cities') 64bit built on Mar 2 2014 21:34:26
Writing library : libebml v1.3.0 + libmatroska v1.4.1
Video
ID : 1
Format : AVC
Format/Info : Advanced Video Codec
Format profile : High@L4.1
Format settings, CABAC : Yes
Format settings, ReFrames : 12 frames
Codec ID : V_MPEG4/ISO/AVC
Duration : 2 h 0 min
Bit rate : 1 883 kb/s
Width : 1 024 pixels
Height : 428 pixels
Display aspect ratio : 2.40:1
Frame rate mode : Constant
Frame rate : 24.000 FPS
Color space : YUV
Chroma subsampling : 4:2:0
Bit depth : 8 bits
Scan type : Progressive
Bits/(Pixel*Frame) : 0.179
Stream size : 1.55 GiB (81%)
Writing library : x264 core 148 r2638 7599210
Encoding settings : cabac=1 / ref=12 / deblock=1:-2:-1 / analyse=0x3:0x113 / me=umh / subme=10 / psy=1 / psy_rd=0.00:0.15 / mixed_ref=1 / me_range=32 / chroma_me=1 / trellis=2 / 8x8dct=1 / cqm=0 / deadzone=21,11 / fast_pskip=0 / chroma_qp_offset=-3 / threads=6 / lookahead_threads=1 / sliced_threads=0 / nr=0 / decimate=1 / interlaced=0 / bluray_compat=0 / constrained_intra=0 / bframes=12 / b_pyramid=2 / b_adapt=2 / b_bias=0 / direct=1 / weightb=0 / open_gop=0 / weightp=2 / keyint=240 / keyint_min=24 / scenecut=40 / intra_refresh=0 / rc_lookahead=40 / rc=2pass / mbtree=1 / bitrate=1883 / ratetol=1.0 / qcomp=0.70 / qpmin=0 / qpmax=69 / qpstep=4 / cplxblur=20.0 / qblur=0.5 / vbv_maxrate=50000 / vbv_bufsize=65500 / nal_hrd=none / filler=0 / ip_ratio=1.40 / aq=1:1.00
Language : English
Default : Yes
Forced : No
Audio
ID : 2
Format : AC-3
Format/Info : Audio Coding 3
Mode extension : CM (complete main)
Format settings, Endianness : Big
Codec ID : A_AC3
Duration : 2 h 0 min
Bit rate mode : Constant
Bit rate : 384 kb/s
Channel(s) : 6 channels
Channel positions : Front: L C R, Side: L R, LFE
Sampling rate : 48.0 kHz
Frame rate : 31.250 FPS (1536 spf)
Compression mode : Lossy
Stream size : 331 MiB (17%)
Title : AC3 5.1 @ 384 kpps
Language : Russian
Default : Yes
Forced : No
Скриншоты
[realmt.org].t812493.torrent 
Торрент: Зарегистрирован [ 2016-12-26 07:41 ] · BF8C4A372CE6F565833DC6ABBB6118C8C467E9E5

Скачать .torrent

Скачать

20 KB

Статус: проверено
Скачан: 0 раз
Размер: 1,91 GB
Оценка:  - (Голосов: 0)
Поблагодарили: 1  Спасибо   (список)
terms.php
Похожие темы
[Профиль] [ЛС]
Быстрый ответ

Имя:

      
Для отправки сообщений необходимо включить JavaScript
Показать сообщения:    
Ответить на тему

Текущее время: 24-Июл 21:48

Часовой пояс: UTC + 3



Вы можете начинать темы
Вы можете отвечать на сообщения
Вы не можете редактировать свои сообщения
Вы не можете удалять свои сообщения
Вы не можете голосовать в опросах
Вы не можете прикреплять файлы к сообщениям
Вы можете скачивать файлы