Невозможное / Lo Imposible / The Impossible (Хуан Антонио Байона / Juan Antonio Bayona) [2012, Испания, триллер, драма, BDRip-AVC] Dub + DVO + AVO + Original (Eng) + Sub (Rus, Eng)

Ответить на тему
 
Автор Сообщение

Bot ®

Стаж: 4 года 2 месяца

Сообщений: 1521

Создавать темы 26-Дек-2016 14:11

[Цитировать]

Невозможное / Lo Imposible / The Impossible- Страна: Испания | Apaches Entertainment, Canal+ Espana, Generalitat Valenciana
Жанр: триллер, драма
Год выпуска: 2012
Продолжительность: 01:53:32
Перевод 1: Профессиональный (дублированный)
Перевод 2: Профессиональный (двухголосый закадровый) студия «Омикрон»
Перевод 3: Авторский (одноголосый закадровый) Ю.Сербин
Cубтитры: русские, английские
Оригинальная аудиодорожка: английский
Режиссер: Хуан Антонио Байона / Juan Antonio Bayona
В ролях: Наоми Уоттс, Юэн МакГрегор, Том Холлэнд, Сэмюэл Джослин, Оакли Пендергаст, Марта Этура, Шенке Мёринг, Джеральдин Чаплин, Плой Хиндачоте, Жомжаои Сэ-Лим
Описание: Во все времена человек был практически беззащитен перед стихиями природы, будь то ураган, тайфун, паводок, снежная лавина или цунами. И даже в наше время высокого развития технологий и создания мощных машин ситуация не изменилась. Действие этого фильма происходит в 2004 году. На город обрушивается цунами огромной силы, разрушая все, что можно разрушить. Людям остается только спасать себя и своих близких любыми путями, прилагая невероятные усилия. Здесь волей-неволей приходится раскрывать самые непредвиденные возможности своего организма и мышления. Вот именно так и становится невозможное возможным.
Сэмпл: http://sendfile.su/1293797

Качество видео: BDRip-AVC (The.Impossible.2012.1080p.BD-Remux.4хRus.Eng.HDCLUB)
Формат видео: MKV
Видео: x264, 992x420 (2.35:1), 24 fps, ~2900 kbps, 0.290 bit/pixel
Аудио 1: 48 kHz, AC3 Dolby Digital, 3/2 (L,C,R,l,r) + LFE ch, ~384 kbps | [Дубляж]
Аудио 2: 48 kHz, AC3 Dolby Digital, 3/2 (L,C,R,l,r) + LFE ch, ~384 kbps | Английский
---------------------------------------отдельно---------------------------------------------------
Аудио 3: 48 kHz, AC3 Dolby Digital, 3/2 (L,C,R,l,r) + LFE ch, ~384 kbps | Омикрон
Аудио 4: 48 kHz, AC3 Dolby Digital, 3/2 (L,C,R,l,r) + LFE ch, ~384 kbps | Сербин
Формат субтитров: softsub (SRT)
MediaInfo
General
Unique ID : 236537748735554328136488211715218060356 (0xB1F38369622DF9FC8AAB9B3790E1B444)
Format : Matroska
Format version : Version 4 / Version 2
File size : 2.91 GiB
Duration : 1h 53mn
Overall bit rate : 3 669 Kbps
Movie name : Невозможное / The Impossible / Lo imposible (2012)
Encoded date : UTC 2016-12-26 08:52:23
Writing application : mkvmerge v9.6.0 ('Slave To Your Mind') 64bit
Writing library : libebml v1.3.4 + libmatroska v1.4.5
Video #1
ID : 1
Format : AVC
Format/Info : Advanced Video Codec
Format profile : High@L4.1
Format settings, CABAC : Yes
Format settings, ReFrames : 10 frames
Codec ID : V_MPEG4/ISO/AVC
Duration : 1h 53mn
Bit rate : 2 900 Kbps
Width : 992 pixels
Height : 420 pixels
Display aspect ratio : 2.35:1
Frame rate mode : Constant
Frame rate : 24.000 fps
Color space : YUV
Chroma subsampling : 4:2:0
Bit depth : 8 bits
Scan type : Progressive
Bits/(Pixel*Frame) : 0.290
Stream size : 2.30 GiB (79%)
Writing library : x264 core 146 r2538 121396c
Encoding settings : cabac=1 / ref=10 / deblock=1:-3:-2 / analyse=0x3:0x113 / me=umh / subme=10 / psy=1 / psy_rd=1.00:0.00 / mixed_ref=1 / me_range=32 / chroma_me=1 / trellis=2 / 8x8dct=1 / cqm=0 / deadzone=21,11 / fast_pskip=1 / chroma_qp_offset=-2 / threads=6 / lookahead_threads=1 / sliced_threads=0 / nr=0 / decimate=1 / interlaced=0 / bluray_compat=0 / constrained_intra=0 / bframes=12 / b_pyramid=2 / b_adapt=2 / b_bias=0 / direct=1 / weightb=1 / open_gop=0 / weightp=2 / keyint=250 / keyint_min=23 / scenecut=40 / intra_refresh=0 / rc_lookahead=50 / rc=2pass / mbtree=1 / bitrate=2900 / ratetol=1.0 / qcomp=0.60 / qpmin=0 / qpmax=69 / qpstep=4 / cplxblur=20.0 / qblur=0.5 / ip_ratio=1.40 / aq=3:1.00
Language : English
Default : Yes
Forced : No
Audio #2
ID : 2
Format : AC-3
Format/Info : Audio Coding 3
Mode extension : CM (complete main)
Format settings, Endianness : Big
Codec ID : A_AC3
Duration : 1h 53mn
Bit rate mode : Constant
Bit rate : 384 Kbps
Channel(s) : 6 channels
Channel positions : Front: L C R, Side: L R, LFE
Sampling rate : 48.0 KHz
Frame rate : 31.250 fps (1536 spf)
Compression mode : Lossy
Stream size : 312 MiB (10%)
Title : Дубляж
Language : Russian
Default : Yes
Forced : No
Audio #3
ID : 3
Format : AC-3
Format/Info : Audio Coding 3
Mode extension : CM (complete main)
Format settings, Endianness : Big
Codec ID : A_AC3
Duration : 1h 53mn
Bit rate mode : Constant
Bit rate : 384 Kbps
Channel(s) : 6 channels
Channel positions : Front: L C R, Side: L R, LFE
Sampling rate : 48.0 KHz
Frame rate : 31.250 fps (1536 spf)
Compression mode : Lossy
Stream size : 312 MiB (10%)
Language : English
Default : No
Forced : No
Text #4
ID : 4
Format : UTF-8
Codec ID : S_TEXT/UTF8
Codec ID/Info : UTF-8 Plain Text
Duration : 1h 42mn
Bit rate : 45 bps
Count of elements : 630
Stream size : 33.9 KiB (0%)
Title : Русские
Language : Russian
Default : No
Forced : No
Text #5
ID : 5
Format : UTF-8
Codec ID : S_TEXT/UTF8
Codec ID/Info : UTF-8 Plain Text
Duration : 1h 39mn
Bit rate : 27 bps
Count of elements : 684
Stream size : 19.9 KiB (0%)
Title : Английские
Language : English
Default : No
Forced : No
лог
raw [info]: 992x420p 1:1 @ 10000000/416667 fps (cfr)
x264 [info]: using SAR=1/1
x264 [info]: using cpu capabilities: MMX2 SSE2Fast SSSE3 SSE4.2 AVX XOP FMA4 FMA3 LZCNT BMI1
x264 [info]: profile High, level 4.1
x264 [info]: frame I:1083 Avg QP:14.95 size: 78930
x264 [info]: frame P:42100 Avg QP:19.02 size: 29673
x264 [info]: frame B:120300 Avg QP:21.20 size: 9423
x264 [info]: consecutive B-frames: 4.4% 5.1% 13.0% 28.5% 14.5% 22.2% 4.0% 1.4% 1.4% 0.8% 0.7% 0.7% 3.0%
x264 [info]: mb I I16..4: 9.8% 65.3% 24.9%
x264 [info]: mb P I16..4: 1.4% 14.3% 3.2% P16..4: 31.8% 25.9% 13.5% 0.0% 0.0% skip: 9.8%
x264 [info]: mb B I16..4: 0.1% 1.7% 0.7% B16..8: 38.0% 12.6% 4.0% direct: 6.5% skip:36.4% L0:42.7% L1:42.8% BI:14.5%
x264 [info]: 8x8 transform intra:72.5% inter:64.2%
x264 [info]: coded y,uvDC,uvAC intra: 84.4% 83.3% 51.6% inter: 33.5% 21.1% 3.8%
x264 [info]: i16 v,h,dc,p: 53% 12% 6% 29%
x264 [info]: i8 v,h,dc,ddl,ddr,vr,hd,vl,hu: 14% 9% 6% 9% 13% 13% 13% 11% 13%
x264 [info]: i4 v,h,dc,ddl,ddr,vr,hd,vl,hu: 31% 6% 4% 7% 11% 10% 11% 8% 10%
x264 [info]: i8c dc,h,v,p: 36% 25% 20% 19%
x264 [info]: Weighted P-Frames: Y:4.1% UV:1.9%
x264 [info]: ref P L0: 47.5% 15.1% 14.6% 5.9% 4.5% 3.4% 3.7% 1.8% 1.6% 1.6% 0.4% 0.0%
x264 [info]: ref B L0: 75.6% 10.1% 5.2% 2.7% 2.2% 1.5% 1.8% 0.6% 0.3%
x264 [info]: ref B L1: 93.7% 6.3%
x264 [info]: kb/s:2898.83
x264 [total]: encoded 163483 frames, 9.19 fps, 2898.83 kb/s
Скриншоты
[Профиль] [ЛС]
Показать сообщения:    
Ответить на тему

Текущее время: 20-Окт 22:56

Часовой пояс: UTC + 3



Вы не можете начинать темы
Вы не можете отвечать на сообщения
Вы не можете редактировать свои сообщения
Вы не можете удалять свои сообщения
Вы не можете голосовать в опросах
Вы не можете прикреплять файлы к сообщениям
Вы не можете скачивать файлы