Сегодня идет свободное скачивание без начисления Download

Дед Мороз. Битва Магов (2016) CamRip

Ответить на тему
Статистика раздачи
Размер:  1,46 GB   |    Зарегистрирован:  11 месяцев 16 дней   |    Скачан:  0 раз
Сидов:  24  [  0 KB/s  ]   Личеров:  4  [  0 KB/s  ]   Подробная статистика пиров
 
   
 
 
Автор Сообщение

Bot ®

Стаж: 5 лет 4 месяца

Сообщений: 55861

Откуда: с того берега моря

Создавать темы 26-Дек-2016 17:52

[Цитировать]

Дед Мороз. Битва Магов (2016) CamRip - Производство: Россия
Жанр: Фэнтези, Семейный, Приключения
Режиссер: Александр Войтинский
Продюсер: Георгий Малков, Владимир Поляков, Лев Карасев
Актеры: Фёдор Бондарчук, Алексей Кравченко, Таисия Вилкова, Никита Волков, Владимир Гостюхин, Егор Бероев, Ксения Алферова, Сергей Бадюк, Ян Цапник, Светлана Пермякова
Описание:
Юную Машу мучают видения летающих огненных монстров. Мама переживает за дочь, одноклассники посмеиваются. Но однажды в самом центре Москвы Маша видит наяву сражение крылатых огненных чудовищ с молодыми людьми, которые называют себя магами. Один из них в последний момент, спасает Машу от нападения химеры. Так Маша попадает в секретную корпорацию, где узнаёт, что Дед Мороз реально существует и, возглавляя армию магов, способных управлять снегом и льдом, охраняет Землю от вторжения темных сил.

Возраст: 6+ (зрителям, достигшим 6 лет)
Дата российской премьеры: 24 декабря 2016, «Двадцатый Век Фокс СНГ»
Продолжительность: 01:51:08
Качество видео: CamRip
Перевод: Не требуется (русский)
Субтитры: Отсутствуют
Реклама: Есть реклама
Видео: Xvid, 720x352, ~1675 Кбит/с
Аудио: AC3, 2 ch, 192 Кбит/с
Mediainfo:
Общее
Полное имя : F:\Закачки\Ded.MorOz.i.BiTva.Magoff.2O16.O.CAMRip..14OOMB.avi
Формат : AVI
Формат/Информация : Audio Video Interleave
Размер файла : 1,46 Гбайт
Продолжительность : 1 ч. 51 м.
Общий поток : 1876 Кбит/сек
Программа кодирования : VirtualDubMod 1.5.10.2 (build 2540/release)
Библиотека кодирования : VirtualDubMod build 2540/release
Видео
Идентификатор : 0
Формат : MPEG-4 Visual
Профиль формата : Advanced Simple@L5
Параметр BVOP формата : 2
Параметр QPel формата : Нет
Параметр GMC формата : Без точки перехода
Параметр матрицы формата : Выборочная
Идентификатор кодека : XVID
Идентификатор кодека/Подсказка : XviD
Продолжительность : 1 ч. 51 м.
Битрейт : 1675 Кбит/сек
Ширина : 720 пикселей
Высота : 352 пикселя
Соотношение сторон : 2,045
Частота кадров : 25,000 кадров/сек
Цветовое пространство : YUV
Субдискретизация насыщенности : 4:2:0
Битовая глубина : 8 бит
Тип развёртки : Прогрессивная
Метод сжатия : С потерями
Бит/(Пиксели*Кадры) : 0.264
Размер потока : 1,30 Гбайт (89%)
Библиотека кодирования : XviD 1.2.1 (UTC 2008-12-04)
Аудио
Идентификатор : 1
Формат : AC-3
Формат/Информация : Audio Coding 3
Расширение режима : CM (complete main)
Параметр Endianness формата : Big
Идентификатор кодека : 2000
Продолжительность : 1 ч. 51 м.
Вид битрейта : Постоянный
Битрейт : 192 Кбит/сек
Каналы : 2 канала
Расположение каналов : Front: L R
Частота : 48,0 КГц
Частота кадров : 31,250 кадров/сек (1536 spf)
Метод сжатия : С потерями
Размер потока : 153 Мбайт (10%)
Выравнивание : Разделение по промежуткам
Продолжительность промежутка : 40 мс. (1,00 видеокадр)
Время предзагрузки промежутка : 500 мс.
Скриншоты:
[realmt.org].t812873.torrent 
Торрент: Зарегистрирован [ 2016-12-26 17:52 ] · F19637ADADA10C950D8B6F3FED07333A3BCD5B2B

Скачать .torrent

Скачать

15 KB

Статус: проверено
Скачан: 0 раз
Размер: 1,46 GB
Оценка:  - (Голосов: 0)
Поблагодарили: 0  Спасибо
terms.php
Похожие темы
[Профиль] [ЛС]
Быстрый ответ

Имя:

      
Для отправки сообщений необходимо включить JavaScript
Показать сообщения:    
Ответить на тему

Текущее время: 12-Дек 11:40

Часовой пояс: UTC + 3



Вы можете начинать темы
Вы можете отвечать на сообщения
Вы не можете редактировать свои сообщения
Вы не можете удалять свои сообщения
Вы не можете голосовать в опросах
Вы не можете прикреплять файлы к сообщениям
Вы можете скачивать файлы