Сегодня идет свободное скачивание без начисления Download

Расплата / The Accountant (2016) BDRemux 1080p | iTunes

Ответить на тему
 
Автор Сообщение

Bot ®

Стаж: 4 года 11 месяцев

Сообщений: 28084

Откуда: СССР

Создавать темы 28-Дек-2016 07:47

[Цитировать]

Информация о фильме
Название: Расплата
Оригинальное название: The Accountant
Год выхода: 2016
Жанр: Боевик, триллер, драма, криминал
Режиссер: Гэвин О’Коннор
В ролях: Бен Аффлек, Анна Кендрик, Дж.К. Симмонс, Джон Бернтал, Джеффри Тэмбор, Синтия Аддай-Робинсон, Джон Литгоу, Джин Смарт, Энди Умбергер, Элисон Райт
О фильме:
Лента расскажет историю математического гения Кристиана Вульфа, который подрабатывает аудитором для самых опасных преступных организаций. Когда ему «на хвост» садится отдел по борьбе с преступностью Министерства финансов во главе с Рэем Кингом Кристиан решает найти себе законопослушного клиента и проводит аудит в компании по производству новейшей робототехники, где сотрудница финансового отдела обнаружила «нестыковочку» в миллионы долларов. Но стоит Кристиану взяться за счета и выйти на след, как в деле начинают появляться жертвы.

Страна: США
Студия: Electric City Entertainment, RatPac-Dune Entertainment, Warner Bros. Pictures, Zero Gravity Management
Продолжительность: 02:07:54
Перевод: Дублированный | iTunes
Файл
Качество: BDRemux 1080p
Видео: MPEG-4 AVC, 1920x1080, 27.5 Mbit/s, 23.976 fps
Звук:
Аудио #01: 48 kHz, AC3, 5.1, 384 Kbps | Дублированный |
Аудио #02: 48 kHz, DTS-HD MA, 7.1, 2538 kbps | Оригинал |
Субтитры: Русские (forced, full), английские
MI
Общее
Уникальный идентификатор : 232952202481011827317034799879029169159 (0xAF40F655288C4BED8EBC6C2704769C07)
Полное имя : F:VideoThe.Accountant.2016.D.BDREMUX.1080p.ExKinoRay.mkv
Формат : Matroska
Версия формата : Version 4 / Version 2
Размер файла : 27,2 Гбайт
Продолжительность : 2 ч. 7 м.
Режим общего битрейта : Переменный
Общий поток : 30,4 Мбит/сек
Название фильма : The.Accountant.2016 ***селезень***
Дата кодирования : UTC 2016-12-27 22:18:42
Программа кодирования : mkvmerge v8.3.0 ('Over the Horizon') 64bit
Библиотека кодирования : libebml v1.3.1 + libmatroska v1.4.2
Видео
Идентификатор : 1
Формат : AVC
Формат/Информация : Advanced Video Codec
Профиль формата : High@L4.1
Параметр CABAC формата : Да
Параметр ReFrames формата : 4 кадра
Идентификатор кодека : V_MPEG4/ISO/AVC
Продолжительность : 2 ч. 7 м.
Вид битрейта : Переменный
Битрейт : 27,5 Мбит/сек
Максимальный битрейт : 34,0 Мбит/сек
Ширина : 1920 пикселей
Высота : 1080 пикселей
Соотношение сторон : 16:9
Режим частоты кадров : Постоянный
Частота кадров : 23,976 (24000/1001) кадра/сек
Цветовое пространство : YUV
Субдискретизация насыщенности : 4:2:0
Битовая глубина : 8 бит
Тип развёртки : Прогрессивная
Бит/(Пиксели*Кадры) : 0.553
Размер потока : 24,6 Гбайт (90%)
Заголовок : The.Accountant.2016 ***селезень***
Язык : English
Default : Да
Forced : Нет
Аудио #1
Идентификатор : 2
Формат : AC-3
Формат/Информация : Audio Coding 3
Расширение режима : CM (complete main)
Параметр Endianness формата : Big
Идентификатор кодека : A_AC3
Продолжительность : 2 ч. 7 м.
Вид битрейта : Постоянный
Битрейт : 384 Кбит/сек
Каналы : 6 каналов
Расположение каналов : Front: L C R, Side: L R, LFE
Частота : 48,0 КГц
Частота кадров : 31,250 кадров/сек (1536 spf)
Битовая глубина : 16 бит
Метод сжатия : С потерями
Размер потока : 351 Мбайт (1%)
Заголовок : Dub [iTunes]
Язык : Russian
Default : Да
Forced : Нет
Аудио #2
Идентификатор : 3
Формат : DTS
Формат/Информация : Digital Theater Systems
Профиль формата : MA / Core
Режим : 16
Параметр Endianness формата : Big
Идентификатор кодека : A_DTS
Продолжительность : 2 ч. 7 м.
Вид битрейта : Переменный / Постоянный
Битрейт : 2538 Кбит/сек / 1509 Кбит/сек
Каналы : 8 каналов / 6 каналов
Расположение каналов : Front: L C R, Side: L R, Back: L R, LFE / Front: L C R, Side: L R, LFE
Частота : 48,0 КГц
Частота кадров : 93,750 кадра/сек (512 spf)
Битовая глубина : 16 бит
Метод сжатия : Без потерь / Lossy
Размер потока : 2,27 Гбайт (8%)
Заголовок : Original
Язык : English
Default : Нет
Forced : Нет
Текст #1
Идентификатор : 4
Формат : UTF-8
Идентификатор кодека : S_TEXT/UTF8
Идентификатор кодека/Информация : UTF-8 Plain Text
Продолжительность : 1 ч. 53 м.
Битрейт : 2 бит/сек
Count of elements : 39
Размер потока : 2,04 Кбайт (0%)
Заголовок : Forced
Язык : Russian
Default : Да
Forced : Нет
Текст #2
Идентификатор : 5
Формат : UTF-8
Идентификатор кодека : S_TEXT/UTF8
Идентификатор кодека/Информация : UTF-8 Plain Text
Продолжительность : 2 ч. 7 м.
Битрейт : 94 бит/сек
Count of elements : 1546
Размер потока : 88,1 Кбайт (0%)
Заголовок : Full
Язык : Russian
Default : Нет
Forced : Нет
Текст #3
Идентификатор : 6
Формат : UTF-8
Идентификатор кодека : S_TEXT/UTF8
Идентификатор кодека/Информация : UTF-8 Plain Text
Продолжительность : 1 ч. 58 м.
Битрейт : 54 бит/сек
Count of elements : 1495
Размер потока : 47,5 Кбайт (0%)
Заголовок : Full
Язык : English
Default : Нет
Forced : Нет
Текст #4
Идентификатор : 7
Формат : UTF-8
Идентификатор кодека : S_TEXT/UTF8
Идентификатор кодека/Информация : UTF-8 Plain Text
Продолжительность : 1 ч. 59 м.
Битрейт : 59 бит/сек
Count of elements : 1700
Размер потока : 52,3 Кбайт (0%)
Заголовок : SDH
Язык : English
Default : Нет
Forced : Нет
Меню
00:00:00.000 : en:Chapter 01
00:13:01.447 : en:Chapter 02
00:20:36.276 : en:Chapter 03
00:29:30.393 : en:Chapter 04
00:38:44.655 : en:Chapter 05
00:49:33.679 : en:Chapter 06
01:00:05.435 : en:Chapter 07
01:13:39.706 : en:Chapter 08
01:25:57.068 : en:Chapter 09
01:39:15.658 : en:Chapter 10
01:54:31.155 : en:Chapter 11
02:01:40.251 : en:Chapter 12
[Профиль] [ЛС]
Показать сообщения:    
Ответить на тему

Текущее время: 24-Апр 10:19

Часовой пояс: UTC + 3



Вы не можете начинать темы
Вы не можете отвечать на сообщения
Вы не можете редактировать свои сообщения
Вы не можете удалять свои сообщения
Вы не можете голосовать в опросах
Вы не можете прикреплять файлы к сообщениям
Вы не можете скачивать файлы