Связь / Bound (1996) BDRemux [H.264/1080p]

Ответить на тему
 
Автор Сообщение

Bot ®

Стаж: 1 год 2 месяца

Сообщений: 2337

Создавать темы 28-Дек-2016 16:38

[Цитировать]

Связь / Bound (1996) BDRemux - Производство: США / Dino De Laurentiis Company
Жанр: Триллер, Драма, Мелодрама, Криминал
Режиссер: Ларри и Энди Вачовски
Актеры: Дженнифер Тилли, Джина Гершон, Джо Пантольяно, Джон П. Райан, Кристофер Мелони, Ричард С. Сарафьян, Мэри Мара, Сьюзи Брайт, Маргарет Смит, Бэрри Кивел
Описание:
Один из членов мафии присвоил два миллиона долларов, был разоблачен, подвергнут пыткам и убит. Все это происходило на глазах Вайолет, любовницы гангстера Сизара, у них дома. Она вообще многое знала, поскольку Сизар никогда ничего от нее не скрывал. А в соседней квартире обосновалась только что вышедшая из тюрьмы суперсексуальная лесбиянка Корки.
Так родилась страстная связь двух женщин, а вместе с ней и идея присвоить те самые миллионы, которые хранятся у Сизара для босса мафии Джино Марзоне. Но не все пошло так, как было задумано.

Возраст: 18+ (зрителям, достигшим 18 лет. запрещено для детей)
Рейтинг MPAA: R (лицам до 17 лет обязательно присутствие взрослого)
Релиз от: lexandros для NNM CLUB
Продолжительность: 01:48:34
Качество видео: BDRemux
Перевод: Многоголосый закадровый, Авторский
Язык субтитров: Русский, русский с ненормативной лексикой, английский.
Вид субтитров: Вшитые, отключаемые
Видео: AVC/H.264, 1920x1080, ~20 Mbps
Аудио 1: DTS-HD MA, 6 ch, 1932 kbps, VBR, Русский (MVO, Екатеринбург Арт)
Аудио 2: DTS-HD MA, 6 ch, 1992 kbps, VBR, Русский (AVO, М. Яроцкий, ненормативная лексика)
Аудио 3: DTS-HD MA, 6 ch, 1929 kbps, VBR, Русский (AVO, П. Карцев)
Аудио 4: DTS-HD MA, 6 ch, 1916 kbps, VBR, Английский (оригинал)
MediaInfo:
General
Format : Matroska
Format version : Version 4 / Version 2
File size : 21.0 GiB
Duration : 1 h 48 min
Overall bit rate mode : Variable
Overall bit rate : 27.7 Mb/s
Movie name : Bound (1996) BDRemux by lexandros
Encoded date : UTC 2016-11-22 06:20:29
Writing application : mkvmerge v9.5.0 ('Quiet Fire') 64bit
Writing library : libebml v1.3.4 + libmatroska v1.4.5
Video
ID : 1
Format : AVC
Format/Info : Advanced Video Codec
Format profile : High@L4.1
Format settings, CABAC : Yes
Format settings, ReFrames : 2 frames
Codec ID : V_MPEG4/ISO/AVC
Duration : 1 h 48 min
Bit rate mode : Variable
Bit rate : 20.0 Mb/s
Width : 1 920 pixels
Height : 1 080 pixels
Display aspect ratio : 16:9
Frame rate mode : Constant
Frame rate : 23.976 (24000/1001) FPS
Color space : YUV
Chroma subsampling : 4:2:0
Bit depth : 8 bits
Scan type : Progressive
Bits/(Pixel*Frame) : 0.402
Stream size : 15.1 GiB (72%)
Language : English
Default : Yes
Forced : No
Audio #1
ID : 2
Format : DTS
Format/Info : Digital Theater Systems
Format profile : MA / Core
Mode : 16
Format settings, Endianness : Big
Codec ID : A_DTS
Duration : 1 h 48 min
Bit rate mode : Variable / Constant
Bit rate : 1 920 kb/s / 1 509 kb/s
Channel(s) : 6 channels
Channel positions : Front: L C R, Side: L R, LFE
Sampling rate : 48.0 kHz
Frame rate : 93.750 FPS (512 spf)
Bit depth : 16 bits
Compression mode : Lossless / Lossy
Stream size : 1.47 GiB (7%)
Title : MVO, Екатеринбург Арт
Language : Russian
Default : Yes
Forced : No
Audio #2
ID : 3
Format : DTS
Format/Info : Digital Theater Systems
Format profile : MA / Core
Mode : 16
Format settings, Endianness : Big
Codec ID : A_DTS
Duration : 1 h 48 min
Bit rate mode : Variable / Constant
Bit rate : 1 992 kb/s / 1 509 kb/s
Channel(s) : 6 channels
Channel positions : Front: L C R, Side: L R, LFE
Sampling rate : 48.0 kHz
Frame rate : 93.750 FPS (512 spf)
Bit depth : 16 bits
Compression mode : Lossless / Lossy
Stream size : 1.51 GiB (7%)
Title : AVO, М. Яроцкий (нецензурный)
Language : Russian
Default : No
Forced : No
Audio #3
ID : 4
Format : DTS
Format/Info : Digital Theater Systems
Format profile : MA / Core
Mode : 16
Format settings, Endianness : Big
Codec ID : A_DTS
Duration : 1 h 48 min
Bit rate mode : Variable / Constant
Bit rate : 1 920 kb/s / 1 509 kb/s
Channel(s) : 6 channels
Channel positions : Front: L C R, Side: L R, LFE
Sampling rate : 48.0 kHz
Frame rate : 93.750 FPS (512 spf)
Bit depth : 16 bits
Compression mode : Lossless / Lossy
Stream size : 1.46 GiB (7%)
Title : AVO, П. Карцев
Language : Russian
Default : No
Forced : No
Audio #4
ID : 5
Format : DTS
Format/Info : Digital Theater Systems
Format profile : MA / Core
Mode : 16
Format settings, Endianness : Big
Codec ID : A_DTS
Duration : 1 h 48 min
Bit rate mode : Variable / Constant
Bit rate : 1 920 kb/s / 1 509 kb/s
Channel(s) : 6 channels
Channel positions : Front: L C R, Side: L R, LFE
Sampling rate : 48.0 kHz
Frame rate : 93.750 FPS (512 spf)
Bit depth : 16 bits
Compression mode : Lossless / Lossy
Stream size : 1.45 GiB (7%)
Language : English
Default : No
Forced : No
Text #1
ID : 6
Format : UTF-8
Codec ID : S_TEXT/UTF8
Codec ID/Info : UTF-8 Plain Text
Duration : 1 h 44 min
Bit rate : 69 b/s
Count of elements : 1083
Stream size : 53.1 KiB (0%)
Language : Russian
Default : Yes
Forced : No
Text #2
ID : 7
Format : UTF-8
Codec ID : S_TEXT/UTF8
Codec ID/Info : UTF-8 Plain Text
Duration : 1 h 42 min
Bit rate : 83 b/s
Count of elements : 1222
Stream size : 62.8 KiB (0%)
Title : неценз.
Language : Russian
Default : No
Forced : No
Text #3
ID : 8
Format : UTF-8
Codec ID : S_TEXT/UTF8
Codec ID/Info : UTF-8 Plain Text
Duration : 1 h 45 min
Bit rate : 50 b/s
Count of elements : 1291
Stream size : 39.1 KiB (0%)
Language : English
Default : No
Forced : No
Menu
00:00:00.000 : en:Chapter 1
00:00:57.432 : en:Chapter 2
00:02:00.787 : en:Chapter 3
00:06:17.335 : en:Chapter 4
00:09:13.386 : en:Chapter 5
00:15:32.473 : en:Chapter 6
00:20:55.921 : en:Chapter 7
00:22:47.324 : en:Chapter 8
00:26:02.561 : en:Chapter 9
00:31:16.374 : en:Chapter 10
00:35:59.824 : en:Chapter 11
00:41:48.130 : en:Chapter 12
00:47:53.871 : en:Chapter 13
00:54:25.845 : en:Chapter 14
01:01:41.072 : en:Chapter 15
01:06:55.052 : en:Chapter 16
01:12:54.495 : en:Chapter 17
01:18:03.929 : en:Chapter 18
01:22:25.857 : en:Chapter 19
01:28:27.468 : en:Chapter 20
01:36:08.053 : en:Chapter 21
01:41:49.937 : en:Chapter 22
01:44:07.241 : en:Chapter 23
Скриншоты:
[Профиль] [ЛС]
Показать сообщения:    
Ответить на тему

Текущее время: 27-Сен 00:50

Часовой пояс: UTC + 3



Вы не можете начинать темы
Вы не можете отвечать на сообщения
Вы не можете редактировать свои сообщения
Вы не можете удалять свои сообщения
Вы не можете голосовать в опросах
Вы не можете прикреплять файлы к сообщениям
Вы не можете скачивать файлы