Сегодня идет свободное скачивание без начисления Download

Новогодние мужчины (2004) DVDRip

Ответить на тему
Статистика раздачи
Размер:  1,39 GB   |    Зарегистрирован:  4 месяца 25 дней   |    Скачан:  0 раз
Сидов:  1  [  0 KB/s  ]   Личеров:  1  [  0 KB/s  ]   Подробная статистика пиров
 
   
 
 
Автор Сообщение

Bot ®

Стаж: 2 года 11 месяцев

Сообщений: 2601

Создавать темы 02-Янв-2017 21:33

[Цитировать]

Новогодние мужчины (2004) DVDRip- Жанр: Комедия, Мелодрама
Страна: Россия
Студия: Кинокомпания "Телефильм"
Описание:
Две молодые эффектные девушки решают развлечь себя накануне Нового года обществом «юношей по вызову», однако их ожидает большой сюрприз. Подруги оказываются в центре невероятных, почти фантастических событий — когда совершенно неожиданно к ним вместо красавцев-мачо приходят трое весьма потрепанных жизнью мужчин, чей возраст уже приблизился скорее к «дедушкам по вызову»…
Режиссер: Виктор Мережко, Валерий Саркисов
Актеры: Михаил Боярский, Анатолий Васильев, Валерий Гаркалин, Анна Герм, Ольга Ломоносова, Алексей Огурцов, Сергей Терещенко, Жанна Егорова
Продолжительность: 01:39:51

Видеокодек: DivX 5
Битрейт видео: ~1720 kb/s
Размер кадра: 688x416
Качество видео: DVDRip
Аудиокодек: AC3 2.0
Битрейт аудио: 256 kb/s
MediaInfo
Общее
Полное имя : E:\Фильмы\Novogodnie.muzhchiny.2004.DVDRip.avi
Формат : AVI
Формат/Информация : Audio Video Interleave
Размер файла : 1,39 Гбайт
Продолжительность : 1 ч. 39 м.
Общий поток : 1986 Кбит/сек
Программа кодирования : FairUse Wizard - http://fairusewizard.com
Библиотека кодирования : The best and REALLY easy backup tool
Видео
Идентификатор : 0
Формат : MPEG-4 Visual
Параметр BVOP формата : 1
Параметр QPel формата : Нет
Параметр GMC формата : Без точки перехода
Параметр матрицы формата : Default (H.263)
Режим смешивания : Сжатый битовый поток
Идентификатор кодека : DX50
Идентификатор кодека/Подсказка : DivX 5
Продолжительность : 1 ч. 39 м.
Битрейт : 1720 Кбит/сек
Ширина : 688 пикс.
Высота : 416 пикс.
Соотношение сторон : 1,654
Частота кадров : 25,000 кадр/сек
Цветовое пространство : YUV
Подвыборка цветности : 4:2:0
Битовая глубина : 8 бит
Тип развёртки : Прогрессивная
Метод сжатия : С потерями
Бит/(Пиксели*Кадры) : 0.240
Размер потока : 1,20 Гбайт (87%)
Библиотека кодирования : DivX 6.8.5 (UTC 2009-08-20)
Аудио
Идентификатор : 1
Формат : AC-3
Формат/Информация : Audio Coding 3
Расширение режима : CM (complete main)
Идентификатор кодека : 2000
Продолжительность : 1 ч. 39 м.
Вид битрейта : Постоянный
Битрейт : 256 Кбит/сек
Каналы : 2 канала
Расположение каналов : Front: L R
Частота : 48,0 КГц
Битовая глубина : 16 бит
Метод сжатия : С потерями
Размер потока : 183 Мбайт (13%)
Выравнивание : Разделение по промежуткам
Продолжительность промежутка : 40 мс. (1,00 видеокадр)
Время предзагрузки промежутка : 500 ms
[realmt.org].t818186.torrent 
Торрент: Зарегистрирован [ 2017-01-02 21:33 ] · 27C1CC661F3C94D3C26175926859437BF02B269C

Скачать .torrent

Скачать

15 KB

Статус: проверено
Скачан: 0 раз
Размер: 1,39 GB
Оценка:  - (Голосов: 0)
Поблагодарили: 0  Спасибо
terms.php
Похожие темы
[Профиль] [ЛС]
Быстрый ответ

Имя:

      
Для отправки сообщений необходимо включить JavaScript
Показать сообщения:    
Ответить на тему

Текущее время: 28-Май 19:46

Часовой пояс: UTC + 3



Вы можете начинать темы
Вы можете отвечать на сообщения
Вы не можете редактировать свои сообщения
Вы не можете удалять свои сообщения
Вы не можете голосовать в опросах
Вы не можете прикреплять файлы к сообщениям
Вы можете скачивать файлы